Welcome Guest ( Log In | Register )

> Torture Division & Bent Sea - Paddling The Pink Canoe In A River Of Blood/Partners In Grind [split] (2013), Death Metal | Grindcore (D)
post Nov 10 2013, 18:05:25
Post #1

Правь статус, ####!111
**************
Group: Металариец
Posts: 2,291
Releases: 1011
From: Гиперборе́я
On Forums: 9 years 10 months
Thanks: 21793 time(s)
Russian Federation


(IMG:http://metalarea.org/images/audiocovers/2013_Nov/acov_tid212086_thumb.jpg)

*Artist: Torture Division & Bent Sea
*Album: Paddling The Pink Canoe In A River Of Blood/Partners In Grind [split]
*Year: 2013
*Genre: Death Metal | Grindcore
*Country: Sweden (IMG:http://metalarea.org/forum/style_images/flags/Sweden.png) | Belgium (IMG:http://metalarea.org/forum/style_images/flags/Belgium.png)
*Format: mp3@CBR320kbps
*Size: 13MB

Tracklist:
Torture Division:
01. Paddling The Pink Canoe In A River Of Blood 03:02
Bent Sea:
02. Partners In Grind 02:02
******************************
Total playing time: 5:04


Preview 2

Technical info
(IMG:http://metalarea.org/images/spectrogram/2013_Nov/1d8ffc507c30f71aeb7b834d2305f9fb.png)
Input File: 02 - Bent Sea - Partners In Grind.mp3
Channels : 2
Sample Rate : 44100
Precision : 16-bit
Duration : 00:02:02.96 = 5422580 samples = 9222.07 CDDA sectors
File Size : 4.94M
Bit Rate : 322k
Sample Encoding: MPEG audio (layer I, II or III)
Comments :
Title=Partners In Grind
Artist=Bent Sea
Album=Torture Division & Bent Sea - Paddling The Pink Canoe In A River Of Blood & Partners In Grind (Split)
Tracknumber=02/02
Year=2013
Genre=Grindcore



Register


Go to the top of the page
  Insert nick Quick quote
+Quote Post
 
Start new topic
Replies (1 - 4)
post Nov 26 2013, 16:02:32
Post #2

Маньяк
**********
Group: Металариец
Posts: 1,414
Releases: 0
From: Рівне
On Forums: 11 years 6 months
Thanks: 145 time(s)
Ukraine


Go to the top of the page
  Insert nick Quick quote
+Quote Post
post Nov 17 2015, 07:49:03
Post #3

Мегаманьяк
***********
Group: Металариец
Posts: 1,562
Releases: 34
From: -за леса,из-за гор
On Forums: 9 years 11 months
Thanks: 2046 time(s)
Russian Federation


Torture Division как всегда радуют качественным материалом и мощным звучанием. Впрочем,Dan Swanц никогда плохого звука не делает (IMG:style_emoticons/default/9.gif)
Go to the top of the page
  Insert nick Quick quote
+Quote Post
post Jul 19 2019, 06:55:51
Post #4

Мегаманьяк
***********
Group: Металариец
Posts: 1,562
Releases: 34
From: -за леса,из-за гор
On Forums: 9 years 11 months
Thanks: 2046 time(s)
Russian Federation


Перезалейте, пожалуйста.
Go to the top of the page
  Insert nick Quick quote
+Quote Post
post Jul 19 2019, 07:34:58
Post #5

Социопат.Маргинал. Мизантроп.Нигилист. Перверзный нарциссист.
**************
Group: Металариец
Posts: 5,570
Releases: 667
From: Город-герой Ленинград
On Forums: 9 years 7 months
Thanks: 6445 time(s)
Russian Federation


Register


Thanks:
Go to the top of the page
  Insert nick Quick quote
+Quote Post

Reply to this topicStart new topic
1 User(s) are reading this topic (1 Guests and 0 Anonymous Users)
0 Members:

 



- Lo-Fi Version Support form
Copyrights and abuse reports form
Time is now: 21st September 2020 - 19:27:35