Welcome Guest ( Log In | Register )

> Redeye - Violence [ep] (2013), Death/Thrash Metal
post Nov 22 2013, 14:05:11
Post #1

Правь статус, ####!111
**************
Group: Металариец
Posts: 23,492
Releases: 16431
From: Г.Харьков
On Forums: 8 years 5 months
Thanks: 309473 time(s)
Unknown


(IMG:http://metalarea.org/images/audiocovers/2013_Nov/acov_tid212974_thumb.jpg)

*Artist: Redeye
*Album: Violence [ep]
*Year: 2013
*Genre: Death/Thrash Metal
*Country: Finland (IMG:http://metalarea.org/forum/style_images/flags/Finland.png)
*Format: mp3@CBR320kbps
*Size: 28MB

Tracklist:
01.Pit of Blood 03:54
02.Visions of Violence 03:10
03.Die Die Die 01:09
04.Cut Open 02:51
******************************
Total playing time: 11:04



Technical info
(IMG:http://metalarea.org/images/spectrogram/2013_Nov/8def060c017bb160924e1ba32f148319.png)
Input File: 02. Visions of Violence.mp3
Channels : 2
Sample Rate : 44100
Precision : 16-bit
Duration : 00:03:11.00 = 8423188 samples = 14325.1 CDDA sectors
File Size : 8.55M
Bit Rate : 358k
Sample Encoding: MPEG audio (layer I, II or III)
Comments :
Title=Visions of Violence
Artist=REDEYE
Album=Violence
Tracknumber=2
Year=2013
Genre=22



Register


Go to the top of the page
  Insert nick Quick quote
+Quote Post
 
Start new topic
Replies (1 - 2)
post Jul 18 2016, 18:52:33
Post #2

_ - = # Thrashogolic # = - _ ... а давайте поржём все вместе
**************
Group: Металариец
Posts: 21,095
Releases: 4444
From: 404
On Forums: 10 years 4 months
Thanks: 27939 time(s)
Ukraine


early them
Redeye - ...Of Blood [ep] (2011)
Redeye - I Am God [demo] (2012)
Go to the top of the page
  Insert nick Quick quote
+Quote Post
post Oct 18 2020, 05:48:26
Post #3

Пять Литров
*****
Group: Металариец
Posts: 475
Releases: 0
On Forums: 12 years 3 months
Thanks: 857 time(s)
Russian Federation


320

Register


Thanks:
Go to the top of the page
  Insert nick Quick quote
+Quote Post

Reply to this topicStart new topic
2 User(s) are reading this topic (2 Guests and 0 Anonymous Users)
0 Members:

 



- Lo-Fi Version Support form
Copyrights and abuse reports form
Time is now: 24th October 2020 - 00:48:09