Welcome Guest ( Log In | Register )

> Torture Division - The Sacrifice [demo] (2013), Death Metal (D)
post Nov 22 2013, 15:04:11
Post #1

Правь статус, ####!111
**************
Group: Металариец
Posts: 22,363
Releases: 15498
From: Г.Харьков
On Forums: 8 years 2 months
Thanks: 283811 time(s)
Unknown


(IMG:http://metalarea.org/images/audiocovers/2013_Nov/acov_tid212977_thumb.JPG)

*Artist: Torture Division
*Album: The Sacrifice [demo]
*Year: 2013
*Genre: Death Metal
*Country: Sweden (IMG:http://metalarea.org/forum/style_images/flags/Sweden.png)
*Format: mp3@CBR320kbps
*Size: 22MB

Tracklist:
01.Queen Sacrifice 03:12
02.Fähund 02:36
03.Flesh Before My Eyes 03:23
******************************
Total playing time: 9:11



Technical info
(IMG:http://metalarea.org/images/spectrogram/2013_Nov/a26b148d8eeb8bb5a82e237c030789a0.png)
Input File: 1. Queen Sacrifice.mp3
Channels : 2
Sample Rate : 44100
Precision : 16-bit
Duration : 00:03:13.02 = 8512094 samples = 14476.4 CDDA sectors
File Size : 7.72M
Bit Rate : 320k
Sample Encoding: MPEG audio (layer I, II or III)
Comments :
Title=Queen Sacrifice
Artist=Torture Division
Album=The Sacrifice
Tracknumber=1
Year=2013
Genre=22



Register


Go to the top of the page
  Insert nick Quick quote
+Quote Post
 
Start new topic
Replies (1 - 4)
post Nov 22 2013, 20:00:00
Post #2

Crush The Enemies
**************
Group: Металариец
Posts: 4,290
Releases: 0
From: Moscow
On Forums: 10 years 10 months
Thanks: 2634 time(s)
Russian Federation


Как всегда в своём олдскульном репертуаре! (IMG:style_emoticons/default/headcrab.png)

P.S. И,как всегда, уже по заведённой традиции - очередная демка (сбился со счёта) (IMG:style_emoticons/default/1488.gif)


Thanks:
(1) Diflock,
Go to the top of the page
  Insert nick Quick quote
+Quote Post
post Dec 5 2013, 03:07:41
Post #3

Маньяк
**********
Group: Металариец
Posts: 1,414
Releases: 0
From: Рівне
On Forums: 11 years 4 months
Thanks: 145 time(s)
Ukraine


Go to the top of the page
  Insert nick Quick quote
+Quote Post
post Jul 19 2019, 06:54:40
Post #4

Мегаманьяк
***********
Group: Металариец
Posts: 1,562
Releases: 34
From: -за леса,из-за гор
On Forums: 9 years 9 months
Thanks: 2043 time(s)
Russian Federation


Перезалейте, пожалуйста.
Go to the top of the page
  Insert nick Quick quote
+Quote Post
post Jul 19 2019, 07:38:08
Post #5

Социопат.Маргинал. Мизантроп.Нигилист. Перверзный нарциссист.
**************
Group: Металариец
Posts: 5,570
Releases: 667
From: Город-герой Ленинград
On Forums: 9 years 5 months
Thanks: 6427 time(s)
Russian Federation


Register


Thanks:
Go to the top of the page
  Insert nick Quick quote
+Quote Post

Reply to this topicStart new topic
1 User(s) are reading this topic (1 Guests and 0 Anonymous Users)
0 Members:

 



- Lo-Fi Version Support form
Copyrights and abuse reports form
Time is now: 16th July 2020 - 04:51:30