Welcome Guest ( Log In | Register )

> Gloriam Est - Cursed Upon Chaos (2013), Black Metal
post Nov 25 2013, 17:00:26
Post #1

Аннигилятор пивА
Group Icon
Group: V.I.P
Posts: 52,360
Releases: 16553
From: Koenigsberg - TILZIT
On Forums: 13 years 7 months
Thanks: 363750 time(s)
Russian Federation


(IMG:http://metalarea.org/images/audiocovers/2013_Nov/acov_tid213196_thumb.jpg)

*Artist: Gloriam Est
*Album: Cursed Upon Chaos
*Year: 2013
*Genre: Black Metal
*Country: Portugal (IMG:http://metalarea.org/forum/style_images/flags/Portugal.png)
*Format: mp3@CBR320kbps
*Size: 90MB

Tracklist:
1. Cursed Upon Chaos 02:02
2. To Destroy Mankind 05:11
3. Gloriam Est 05:04
4. Flames Of Despair 05:23
5. Feeling From The sky 02:58
6. Pure Moments Of Death 05:23
7. Infernal Slaves Of Pain 06:01
8. Matters Of Darkness & Chaos 06:26
******************************
Total playing time: 38:28



Extended info
флак-рип, исходник с кассеты


Technical info
(IMG:http://metalarea.org/images/spectrogram/2013_Nov/0282fa7bd571578606255a308dabaf5b.png)
Input File: 04. Flames Of Despair.mp3
Channels : 2
Sample Rate : 44100
Precision : 16-bit
Duration : 00:05:23.14 = 14250562 samples = 24235.6 CDDA sectors
File Size : 12.9M
Bit Rate : 320k
Sample Encoding: MPEG audio (layer I, II or III)
Comments :
Title=Flames Of Despair
Artist=Gloriam Est
Album=Cursed Upon Chaos
Tracknumber=4
Year=2013



Register


Go to the top of the page
  Insert nick Quick quote
+Quote Post
 
Start new topic
Replies (1 - 3)
post Nov 26 2013, 21:50:55
Post #2
BAN
Banned till
Jan 27 2020, 13:06:28



занятная работа, подачей и атмосферой напомнила некоторые старые питерские проекты, типа Belkardt, Fantasmogory, Thanelorn, Primeval Chaos (хоть морота и принято ругать, блэк он делал отличный).
саунд разве что поглаже, с емким басом, разборчивыми риффами, декламацией и прочими плюшками, а в остальном - тот же отрешенный минорный чес да сдавленный скрим. прекрасный альбом.


Thanks:
Go to the top of the page
  Insert nick Quick quote
+Quote Post
post Nov 30 2013, 18:50:18
Post #3

...Only Death Is Real...
**************
Group: Металариец
Posts: 2,817
Releases: 16
On Forums: 9 years 6 months
Thanks: 1807 time(s)
Antarctica


Go to the top of the page
  Insert nick Quick quote
+Quote Post
post Jan 17 2015, 17:10:04
Post #4

holy trident
**********
Group: Металариец
Posts: 1,110
Releases: 0
On Forums: 7 years 1 week
Thanks: 730 time(s)
Ukraine


ЦИТАТА(tormoz @ Nov 26 2013, 22:50:55) *
занятная работа, подачей и атмосферой напомнила некоторые старые питерские проекты, типа Belkardt, Fantasmogory, Thanelorn, Primeval Chaos (хоть морота и принято ругать, блэк он делал отличный).
саунд разве что поглаже, с емким басом, разборчивыми риффами, декламацией и прочими плюшками, а в остальном - тот же отрешенный минорный чес да сдавленный скрим. прекрасный альбом.


так это ж демо упомянутого Primeval Chaos и есть, только под другой вывеской.
даже по хронометражу видно, материал один в один вообще. (IMG:style_emoticons/default/bye.gif)


Thanks:
Go to the top of the page
  Insert nick Quick quote
+Quote Post

Reply to this topicStart new topic
1 User(s) are reading this topic (1 Guests and 0 Anonymous Users)
0 Members:

 



- Lo-Fi Version Support form
Copyrights and abuse reports form
Time is now: 22nd January 2020 - 07:20:35