Welcome Guest ( Log In | Register )

> Noothgrush & Coffins - Noothgrush/Coffins [split] (2013), Sludge/Doom Metal | Doom/Death Metal
post Nov 26 2013, 00:45:42
Post #1

Мегаманьяк
***********
Group: Металариец
Posts: 1,981
Releases: 1612
From: Saratov
On Forums: 10 years 8 months
Thanks: 57198 time(s)
Russian Federation


(IMG:http://metalarea.org/images/audiocovers/2013_Nov/acov_tid213216_thumb.jpg)

*Artist: Noothgrush & Coffins
*Album: Noothgrush/Coffins [split]
*Year: 2013
*Genre: Sludge/Doom Metal | Doom/Death Metal
*Country: United States (IMG:http://metalarea.org/forum/style_images/flags/United%20States.png) | Japan (IMG:http://metalarea.org/forum/style_images/flags/Japan.png)
*Format: mp3@CBR320kbps
*Size: 68MB

Tracklist:
Noothgrush:
1. Humandemic 03:26
2. Jundland Wastes 04:55
3. Thoth 09:01
Coffins:
4. Drown in Revelation 06:24
5. The Wretched Path 05:23
******************************
Total playing time: 29:09

Preview

Technical info
(IMG:http://metalarea.org/images/spectrogram/2013_Nov/4fe818278316d2655208cfaa98269a2d.png)
Input File: 01 Noothgrush-Humandemic Part.mp3
Channels : 2
Sample Rate : 44100
Precision : 16-bit
Duration : 00:01:43.08 = 4545740 samples = 7730.85 CDDA sectors
File Size : 4.41M
Bit Rate : 342k
Sample Encoding: MPEG audio (layer I, II or III)
Comments :
Title=Humandemic
Artist=Noothgrush
Album=Split LP
Tracknumber=1
Year=2013
Genre=Sludge/Doom Metal



Register


Вернуться к началу страницы
  Insert nick Quick quote
+Цитировать сообщение
 
Создать новую тему
Replies (1 - 3)
post Sep 7 2015, 12:26:44
Post #2

...Only Death Is Real...
**************
Group: Металариец
Posts: 2,594
Releases: 15
On Forums: 7 years 10 months
Thanks: 1610 time(s)
Russian Federation


320
Register
Вернуться к началу страницы
  Insert nick Quick quote
+Цитировать сообщение
post Jan 9 2018, 13:41:09
Post #3

ill-dis-punk
*******
Group: Металариец
Posts: 723
Releases: 7
From: Israel,Bat-Yam
On Forums: 11 years 8 months
Thanks: 136 time(s)
Israel


please reupload
Вернуться к началу страницы
  Insert nick Quick quote
+Цитировать сообщение
post Jan 13 2018, 08:14:32
Post #4

Литр
*
Group: Подсевший
Posts: 70
Releases: 0
On Forums: 9 years 4 months
Thanks: 0 time(s)
Germany


reup please
Вернуться к началу страницы
  Insert nick Quick quote
+Цитировать сообщение

ОтветитьСоздать новую тему
1 User(s) are reading this topic (1 Guests and 0 Anonymous Users)
0 Members:

 



- Lo-Fi Version Support form
Copyrights and abuse reports form
Time is now: 24th May 2018 - 14:25:47