Welcome Guest ( Log In | Register )

> Noothgrush & Coffins - Noothgrush/Coffins [split] (2013), Sludge/Doom Metal | Doom/Death Metal
post Nov 26 2013, 00:45:42
Post #1

Мегаманьяк
***********
Group: Металариец
Posts: 1,981
Releases: 1612
From: Saratov
On Forums: 10 years 11 months
Thanks: 57248 time(s)
Russian Federation


(IMG:http://metalarea.org/images/audiocovers/2013_Nov/acov_tid213216_thumb.jpg)

*Artist: Noothgrush & Coffins
*Album: Noothgrush/Coffins [split]
*Year: 2013
*Genre: Sludge/Doom Metal | Doom/Death Metal
*Country: United States (IMG:http://metalarea.org/forum/style_images/flags/United%20States.png) | Japan (IMG:http://metalarea.org/forum/style_images/flags/Japan.png)
*Format: mp3@CBR320kbps
*Size: 68MB

Tracklist:
Noothgrush:
1. Humandemic 03:26
2. Jundland Wastes 04:55
3. Thoth 09:01
Coffins:
4. Drown in Revelation 06:24
5. The Wretched Path 05:23
******************************
Total playing time: 29:09

Preview

Technical info
(IMG:http://metalarea.org/images/spectrogram/2013_Nov/4fe818278316d2655208cfaa98269a2d.png)
Input File: 01 Noothgrush-Humandemic Part.mp3
Channels : 2
Sample Rate : 44100
Precision : 16-bit
Duration : 00:01:43.08 = 4545740 samples = 7730.85 CDDA sectors
File Size : 4.41M
Bit Rate : 342k
Sample Encoding: MPEG audio (layer I, II or III)
Comments :
Title=Humandemic
Artist=Noothgrush
Album=Split LP
Tracknumber=1
Year=2013
Genre=Sludge/Doom Metal



Register


Go to the top of the page
  Insert nick Quick quote
+Quote Post
 
Start new topic
Replies (1 - 3)
post Sep 7 2015, 12:26:44
Post #2

...Only Death Is Real...
**************
Group: Металариец
Posts: 2,640
Releases: 15
On Forums: 8 years 3 weeks
Thanks: 1624 time(s)
Russian Federation


320
Register
Go to the top of the page
  Insert nick Quick quote
+Quote Post
post Jan 9 2018, 13:41:09
Post #3

ill-dis-punk
*******
Group: Металариец
Posts: 739
Releases: 7
From: Israel,Bat-Yam
On Forums: 11 years 11 months
Thanks: 142 time(s)
Israel


please reupload
Go to the top of the page
  Insert nick Quick quote
+Quote Post
post Jan 13 2018, 08:14:32
Post #4

Литр
*
Group: Подсевший
Posts: 86
Releases: 0
On Forums: 9 years 7 months
Thanks: 0 time(s)
Germany


reup please
Go to the top of the page
  Insert nick Quick quote
+Quote Post

Reply to this topicStart new topic
1 User(s) are reading this topic (1 Guests and 0 Anonymous Users)
0 Members:

 



- Lo-Fi Version Support form
Copyrights and abuse reports form
Time is now: 15th August 2018 - 08:05:17