Welcome Guest ( Log In | Register )

> Sumadual Mued - First Pages Of Demonology [best of/compilation] (2005), Black Metal
post Nov 29 2013, 12:05:08
Post #1

Пять Литров
*****
Group: Металариец
Posts: 499
Releases: 145
From: Питер
On Forums: 14 years 1 month
Thanks: 1805 time(s)
Russian Federation


(IMG:http://metalarea.org/images/audiocovers/2013_Nov/acov_tid213513_thumb.jpg)

*Artist: Sumadual Mued
*Album: First Pages Of Demonology [best of/compilation]
*Year: 2005
*Genre: Black Metal
*Country: Russian Federation (IMG:http://metalarea.org/forum/style_images/flags/Russian%20Federation.png)
*Format: mp3@CBR320kbps
*Size: 168MB

Tracklist:
01. Your New God
02. Ruins Of Life
03. Untitled Track
04. Demon's Life
05. Names
06. The Book
07. Beyond The Trees
08. Chaos
09. The Truth
10. Ave Satanas!
11. Outro - World's Funeral
12. The Unholy Prophet
13. In Nomine
14. Cursed Child
15. Darkness Return
16. Ruins Of Life
17. Outro
******************************
Total playing time: 1:16:57

Technical info
(IMG:http://metalarea.org/images/spectrogram/2013_Nov/f2bccc17794a10dfb1ff648427f3cbdb.png)
Input File: 01.Your New God.mp3
Channels : 2
Sample Rate : 44100
Precision : 16-bit
Duration : 00:05:33.77 = 14719213 samples = 25032.7 CDDA sectors
File Size : 13.4M
Bit Rate : 320k
Sample Encoding: MPEG audio (layer I, II or III)
Comments :
Title=Your New God
Artist=Sumadual Mued
Album=First Pages Of Demonology
Tracknumber=1
Year=2005
Genre=138



Register


Go to the top of the page
  Insert nick Quick quote
+Quote Post
 
Start new topic
Replies (1 - 3)
post Nov 29 2013, 22:44:01
Post #2

Шесть Литров
******
Group: Металариец
Posts: 654
Releases: 42
From: М.О.
On Forums: 13 years 2 months
Thanks: 3329 time(s)
Russian Federation


Подтягивается на невидимом турнике.


Thanks:
Go to the top of the page
  Insert nick Quick quote
+Quote Post
post Dec 4 2013, 10:35:05
Post #3

Сектант технодро4чер
**************
Group: Металариец
Posts: 5,515
Releases: 143
From: Тимчасово окупована територія
On Forums: 11 years 6 months
Thanks: 5773 time(s)
Ukraine


Аж 17 треков, но они ничем не отличаются друг от друга... (IMG:style_emoticons/default/21.gif)
Go to the top of the page
  Insert nick Quick quote
+Quote Post
post Jul 30 2018, 19:58:01
Post #4

antithesis
**************
Group: Металариец
Posts: 2,949
Releases: 33
From: VRN
On Forums: 9 years 9 months
Thanks: 1798 time(s)
Russian Federation


reuploaded
Register
Go to the top of the page
  Insert nick Quick quote
+Quote Post

Reply to this topicStart new topic
2 User(s) are reading this topic (2 Guests and 0 Anonymous Users)
0 Members:

 



- Lo-Fi Version Support form
Copyrights and abuse reports form
Time is now: 23rd February 2020 - 23:23:06