Welcome Guest ( Log In | Register )

> Bodyfarm - The Coming Scourge (2013), Old School Death Metal
post Nov 30 2013, 12:37:14
Post #1

Аннигилятор пивА
Group Icon
Group: V.I.P
Posts: 52,360
Releases: 16550
From: Koenigsberg - TILZIT
On Forums: 13 years 10 months
Thanks: 364647 time(s)
Russian Federation


(IMG:http://metalarea.org/images/audiocovers/2013_Nov/acov_tid213601_thumb.jpg)

*Artist: Bodyfarm
*Album: The Coming Scourge
*Year: 2013
*Genre: Old School Death Metal
*Country: Netherlands (IMG:http://metalarea.org/forum/style_images/flags/Netherlands.png)
*Format: mp3@CBR320kbps
*Size: 87MB

Tracklist:
01. Unbroken
02. Frontline Massacre
03. Vortex Of Terror
04. The Coming Scourge
05. Eden´s Destruction
06. The Well Of Decay
07. The Frozen Halls
08. Der Landkreuzer
09. The Siege Of The Mind
10. Enter The Eternal Fire (Bathory Cover)
******************************
Total playing time: 38:38



Extended info
Quint Meerbeek - drums
Thomas Wouters - guitars/vox
Mathieu Westerveld - bass
Bram Hilhorst - guitars



Technical info
(IMG:http://metalarea.org/images/spectrogram/2013_Nov/5fce3a867d6825c220bfaa2bfe9d4dd2.png)
Input File: (02) [Bodyfarm] Frontline Massacre.mp3
Channels : 2
Sample Rate : 44100
Precision : 16-bit
Duration : 00:03:21.38 = 8880858 samples = 15103.5 CDDA sectors
File Size : 8.06M
Bit Rate : 320k
Sample Encoding: MPEG audio (layer I, II or III)
Comments :
Title=Frontline Massacre
Artist=Bodyfarm
Album=The Coming Scourge
Tracknumber=02
Year=2013
Genre=Death Metal



Register


Go to the top of the page
  Insert nick Quick quote
+Quote Post
 
Start new topic
Replies (1 - 9)
post Nov 30 2013, 17:23:38
Post #2

Join my religion, or die
**************
Group: Металариец
Posts: 10,556
Releases: 1467
From: Питера
On Forums: 10 years 6 months
Thanks: 19023 time(s)
Russian Federation


(IMG:style_emoticons/default/banana.gif) (IMG:style_emoticons/default/banana.gif) (IMG:style_emoticons/default/banana.gif)
Go to the top of the page
  Insert nick Quick quote
+Quote Post
post Dec 1 2013, 06:13:52
Post #3

кручу наждак
**************
Group: Металариец
Posts: 4,316
Releases: 102
From: Самара
On Forums: 9 years 10 months
Thanks: 3422 time(s)
Russian Federation


Бодренькое такое рубилово, судя по превью. Возьму на заметку.
Go to the top of the page
  Insert nick Quick quote
+Quote Post
post Dec 1 2013, 06:48:29
Post #4

Правь статус, ####!111
**************
Group: Металариец
Posts: 21,212
Releases: 14487
From: Г.Харьков
On Forums: 7 years 10 months
Thanks: 258417 time(s)
Unknown


Register
314 mb


Go to the top of the page
  Insert nick Quick quote
+Quote Post
post Dec 1 2013, 11:09:24
Post #5

Сектант технодро4чер
**************
Group: Металариец
Posts: 5,517
Releases: 143
From: Тимчасово окупована територія
On Forums: 11 years 7 months
Thanks: 5799 time(s)
Ukraine


Огромное спасибо за 320 и лося, господа! (IMG:style_emoticons/default/9.gif) (IMG:style_emoticons/default/9.gif) (IMG:style_emoticons/default/9.gif) Очень ждал: для меня это едва ли не альбом года в жанре! (IMG:style_emoticons/default/banana.gif) (IMG:style_emoticons/default/banana.gif) (IMG:style_emoticons/default/banana.gif)
Go to the top of the page
  Insert nick Quick quote
+Quote Post
post Dec 3 2013, 07:55:07
Post #6

Мегаманьяк
***********
Group: Металариец
Posts: 1,600
Releases: 0
From: Санкт-Петербург
On Forums: 10 years 7 months
Thanks: 673 time(s)
Russian Federation


Спасибо за 320 (хотя вариант с низким битрейтом тоже был очень неплох)
Go to the top of the page
  Insert nick Quick quote
+Quote Post
post Mar 4 2014, 16:31:33
Post #7

ME[ta]LLOMAN
**************
Group: Металариец
Posts: 4,952
Releases: 3
From: Avdeyevka
On Forums: 13 years 11 months
Thanks: 1929 time(s)
Honduras


запахло порохом и напалмом...
очень радует слух (IMG:style_emoticons/default/9.gif)
Go to the top of the page
  Insert nick Quick quote
+Quote Post
post Nov 6 2015, 12:28:57
Post #8

ПОЛИТИК
**************
Group: Металариец
Posts: 5,618
Releases: 4
From: P T
On Forums: 13 years 4 months
Thanks: 374 time(s)
Canada


downloaded in 320 (IMG:style_emoticons/default/9.gif)
Go to the top of the page
  Insert nick Quick quote
+Quote Post
post Aug 22 2019, 15:01:13
Post #9

Правь статус, ####!111
**************
Group: Металариец
Posts: 6,887
Releases: 165
From: URUGUAY
On Forums: 13 years 6 months
Thanks: 18678 time(s)
Uruguay


320
Register


Thanks:
(1) atavist,
Go to the top of the page
  Insert nick Quick quote
+Quote Post
post Sep 21 2019, 19:20:54
Post #10

Going home. Flying high.
**************
Group: Металариец
Posts: 12,966
Releases: 0
From: The Land of Shadows
On Forums: 13 years 7 months
Thanks: 23301 time(s)
Russian Federation


320 kbps @ CD-rip
Register


Thanks:
Go to the top of the page
  Insert nick Quick quote
+Quote Post

Reply to this topicStart new topic
1 User(s) are reading this topic (1 Guests and 0 Anonymous Users)
0 Members:

 



- Lo-Fi Version Support form
Copyrights and abuse reports form
Time is now: 1st April 2020 - 16:05:18