Welcome Guest ( Log In | Register )

> Sons Of Huns - Banishment Ritual (2013), Psychedelic/Stoner Metal
post Dec 1 2013, 08:10:58
Post #1

Аннигилятор пивА
Group Icon
Group: V.I.P
Posts: 52,360
Releases: 16550
From: Koenigsberg - TILZIT
On Forums: 14 years 1 week
Thanks: 365294 time(s)
Russian Federation


(IMG:http://metalarea.org/images/audiocovers/2013_Dec/acov_tid213653_thumb.jpg)

*Artist: Sons Of Huns
*Album: Banishment Ritual
*Year: 2013
*Genre: Psychedelic/Stoner Metal
*Country: United States (IMG:http://metalarea.org/forum/style_images/flags/United%20States.png)
*Format: mp3@CBR320kbps
*Size: 104MB

Tracklist:
01. Banishment Ritual 03:09
02. Argenteum Astrum 05:07
03. Heliolith 04:57
04. Horror In Clay 03:32
05. I'm Your Dad 02:01
06. Waking Sleep 02:49
07. Planet No. 9 04:09
08. Lord of Illusion 04:01
09. Rollin' the Dice 02:25
10. Super Kanpai Rainbow 06:05
11. Oroboros 05:21
******************************
Total playing time: 43:36


Preview 2

Extended info
Shoki Tanabe: bass/vox
Pete Hughes: guitar/vox
Ryan Northrop: drums


Technical info
(IMG:http://metalarea.org/images/spectrogram/2013_Dec/e99c89e3fd08dfa6b6eadeb585e3c1af.png)
Input File: Sons of Huns - Banishment Ritual - 02 Argenteum Astrum.mp3
Channels : 2
Sample Rate : 44100
Precision : 16-bit
Duration : 00:05:08.09 = 13586945 samples = 23107 CDDA sectors
File Size : 12.6M
Bit Rate : 327k
Sample Encoding: MPEG audio (layer I, II or III)
Comments :
Title=Argenteum Astrum
Artist=Sons of Huns
Album=Banishment Ritual
Tracknumber=2
Year=2013



Register


Go to the top of the page
  Insert nick Quick quote
+Quote Post
 
Start new topic
Replies (1 - 1)
post Dec 3 2013, 03:01:24
Post #2

Три Литра
***
Group: Завсегдатай
Posts: 219
Releases: 150
On Forums: 8 years 6 months
Thanks: 1684 time(s)
Paraguay


320 Kbps Mirror
Register


Thanks:
Go to the top of the page
  Insert nick Quick quote
+Quote Post

Reply to this topicStart new topic
1 User(s) are reading this topic (1 Guests and 0 Anonymous Users)
0 Members:

 



- Lo-Fi Version Support form
Copyrights and abuse reports form
Time is now: 5th June 2020 - 16:52:25