Welcome Guest ( Log In | Register )

> The Wild Hunt - The Wild Hunt [ep] (2013), Melodic Death/Black Metal
post Dec 2 2013, 06:39:14
Post #1

Правь статус, ####!111
**************
Group: Металариец
Posts: 2,291
Releases: 1011
From: Гиперборе́я
On Forums: 10 years 5 months
Thanks: 21892 time(s)
Russian Federation


(IMG:http://metalarea.org/images/audiocovers/2013_Dec/acov_tid213722_thumb.jpg)

*Artist: The Wild Hunt
*Album: The Wild Hunt [ep]
*Year: 2013
*Genre: Melodic Death/Black Metal
*Country: Canada (IMG:http://metalarea.org/forum/style_images/flags/Canada.png)
*Format: mp3@CBR320kbps
*Size: 60MB

Tracklist:
01. The Wild Hunt 04:15
02. Draugr 05:17
03. Voyage To Valhalla 06:28
04. Hymn Of The North 09:55
******************************
Total playing time: 25:55




Technical info
(IMG:http://metalarea.org/images/spectrogram/2013_Dec/6132eebb2f487050321f4c83f41a4bb3.png)
Input File: 02 - Draugr.mp3
Channels : 2
Sample Rate : 44100
Precision : 16-bit
Duration : 00:05:17.76 = 14013216 samples = 23832 CDDA sectors
File Size : 12.7M
Bit Rate : 320k
Sample Encoding: MPEG audio (layer I, II or III)
Comments :
Title=Draugr
Artist=The Wild Hunt
Album=The Wild Hunt (EP)
Tracknumber=02/04
Year=2013
Genre=Melodic Death/Black Metal



Register


Go to the top of the page
  Insert nick Quick quote
+Quote Post
 
Start new topic
Replies (1 - 1)
post Dec 5 2013, 15:23:40
Post #2

Два Литра
**
Group: Завсегдатай
Posts: 151
Releases: 0
On Forums: 13 years 3 months
Thanks: 17 time(s)
Russian Federation


Качайте, слушайте! Не пожалеете. Бас просто шикарен.


Thanks:
Go to the top of the page
  Insert nick Quick quote
+Quote Post

Reply to this topicStart new topic
2 User(s) are reading this topic (2 Guests and 0 Anonymous Users)
0 Members:

 



- Lo-Fi Version Support form
Copyrights and abuse reports form
Time is now: 21st April 2021 - 15:14:53