Welcome Guest ( Log In | Register )

> Torment - Suffocated Dreams (2007), Thrash Metal
post Dec 2 2013, 17:52:21
Post #1

Serial Uploader
Group Icon
Group: V.I.P
Posts: 37,124
Releases: 35308
From: Lithuania
On Forums: 11 years 11 months
Thanks: 419454 time(s)
Lithuania


(IMG:http://metalarea.org/images/audiocovers/2013_Dec/acov_tid213819_thumb.jpg)

*Artist: Torment
*Album: Suffocated Dreams
*Year: 2007
*Genre: Thrash Metal
*Country: Italy (IMG:http://metalarea.org/forum/style_images/flags/Italy.png)
*Format: mp3@VBR283kbps
*Size: 68MB

Tracklist:
01. Oppressed 04:51
02. Mystery Of The Soul 02:48
03. In Your Subconscious 03:22
04. Never See The Light 03:31
05. Pathology 06:39
06. Illusive Tranquillity 03:55
07. Poisoned Existence 04:05
08. Living Mannequin 04:28
******************************
Total playing time: 33:39

(IMG:http://metalarea.org/images/myspace.png)



Extended info
(IMG:http://metalarea.org/images/spectrogram/2013_Dec/d540e7aaa8e8f7b68fe3282fbd8a2b65.png)
Input File: 02-torment-mystery_of_the_soul-berc.mp3
Channels : 2
Sample Rate : 44100
Precision : 16-bit
Duration : 00:02:48.44 = 7428072 samples = 12632.8 CDDA sectors
File Size : 6.04M
Bit Rate : 287k
Sample Encoding: MPEG audio (layer I, II or III)
Comments :
Title=Mystery of the Soul
Artist=Torment
Album=Suffocated Dreams
Tracknumber=2/8
Year=2013
Genre=Thrash Metal


Register


This post has been edited by necroscum: Dec 3 2013, 13:33:36


Go to the top of the page
  Insert nick Quick quote
+Quote Post
 
Start new topic
Replies (1 - 2)
post Dec 2 2013, 18:39:06
Post #2

Четыре Литра
****
Group: Металариец
Posts: 305
Releases: 5
From: Рим
On Forums: 12 years 1 month
Thanks: 311 time(s)
Russian Federation


на геталбумс написано что переиздание 2007 в 2013
Go to the top of the page
  Insert nick Quick quote
+Quote Post
post Dec 3 2013, 01:44:17
Post #3

\m/
Group Icon
Group: S-moderation team
Posts: 7,789
Releases: 19
From: Петропавловск-Камчатский
On Forums: 10 years 11 months
Thanks: 7602 time(s)
Russian Federation


Да, он переиздался на Punishment 18 Records в 2013 году, но дата релиза всё-таки числится как (указано на офсайте):
ЦИТАТА(http://www.facebook.com/pages/Torment/157391966048)
Suffocated dreams (2008) (Full- self produced)
Scars remain (2010) (EP - Self produced)
The Damage is done (2012) (EBM Records)
Go to the top of the page
  Insert nick Quick quote
+Quote Post

Reply to this topicStart new topic
1 User(s) are reading this topic (1 Guests and 0 Anonymous Users)
0 Members:

 



- Lo-Fi Version Support form
Copyrights and abuse reports form
Time is now: 3rd June 2020 - 20:52:52