Welcome Guest ( Log In | Register )

> И неформату есть предел.

Рэп/хип-хоп/шансон/поп удаляются. Для них есть свои порталы.

> Deyðin - Í Æviga Myrkrinum (2011), Dark Ambient
post Dec 3 2013, 07:59:14
Post #1

.....
**************
Group: Металариец
Posts: 2,791
Releases: 112
On Forums: 11 years 1 month
Thanks: 4000 time(s)
Unknown


(IMG:http://metalarea.org/images/audiocovers/2013_Dec/acov_tid213849_thumb.jpeg)

*Artist: Deyðin
*Album: Í Æviga Myrkrinum
*Year: 2011
*Genre: Dark Ambient
*Country: Faroe Islands (IMG:http://metalarea.org/forum/style_images/flags/Faroe%20Islands.png)
*Format: mp3@CBR320kbps
*Size: 62MB

Tracklist:
1. Mjørki 14:52
2. Sorg 9:14
3. Deyðin 6:02
4. Ferðin Til Myrkrið 12:54
5. Í Æviga Myrkrinum 10:19
******************************
Total playing time: 53:21

Extended info
CD-Rip

Спектры вот такие странные,да

Альбом записан вот таким неоднозначным человеком:http://www.metal-archives.com/artists/Rasmus_Rasmussen/357289


Technical info
(IMG:http://metalarea.org/images/spectrogram/2013_Dec/280bbc8da0ee04298b9e6bbaa6563abb.png)
Input File: 03.Dey?in - Dey?in.mp3
Channels : 2
Sample Rate : 44100
Precision : 16-bit
Duration : 00:06:01.98 = 15963362 samples = 27148.6 CDDA sectors
File Size : 14.5M
Bit Rate : 320k
Sample Encoding: MPEG audio (layer I, II or III)
Comments :
Title=DeyГ°in
Artist=DeyГ°in
Year=2011
Genre=Dark Ambient



Register


Go to the top of the page
  Insert nick Quick quote
+Quote Post
 
Start new topic
Replies (1 - 8)
post Dec 3 2013, 15:53:50
Post #2

Два Литра
**
Group: Завсегдатай
Posts: 175
Releases: 0
From: Чуркестан
On Forums: 13 years 2 weeks
Thanks: 17 time(s)
Uzbekistan


Не думал, что скажу когда-либо про эмбиент так, но - скучно.
Радует одно - где-то г*м*секи ещё не считаются прогрессом и надеждой человечества)


Thanks:
(1) Goatrex,
Go to the top of the page
  Insert nick Quick quote
+Quote Post
post Dec 3 2013, 16:18:28
Post #3

Два Литра
**
Group: Завсегдатай
Posts: 175
Releases: 0
From: Чуркестан
On Forums: 13 years 2 weeks
Thanks: 17 time(s)
Uzbekistan


[off]Не знаю, почему ты так называешь ТС, но он старался, выкладывая материал, и просто поругать результат его труда - невежливо имхо.[/off]
Go to the top of the page
  Insert nick Quick quote
+Quote Post
post Dec 3 2013, 16:28:54
Post #4

Три Литра
***
Group: Завсегдатай
Posts: 214
Releases: 0
On Forums: 10 years 7 months
Thanks: 230 time(s)
Unknown


ЦИТАТА(zoog @ Dec 3 2013, 21:18:28) *
Не знаю, почему ты так называешь ТС, но он старался, выкладывая материал, и просто поругать результат его труда - невежливо имхо.

думаю, он имел в виду совсем не ТС
непонятно что ли - кто тут дырявый?
ты же, вроде, прочёл доп.материалы...
Go to the top of the page
  Insert nick Quick quote
+Quote Post
post Dec 3 2013, 17:07:34
Post #5

.....
**************
Group: Металариец
Posts: 2,791
Releases: 112
On Forums: 11 years 1 month
Thanks: 4000 time(s)
Unknown


ЦИТАТА(Eichmann @ 3rd December 2013 - 18:08:01) *
ПС вот тока ты сам-то отчего дырявому спасибку поставил, а?

ЦИТАТА(zoog @ 3rd December 2013 - 18:18:28) *
но он старался, выкладывая материал, и просто поругать результат его труда - невежливо имхо


Я надеюсь это об исполнителе всё, а не о релизёре
Go to the top of the page
  Insert nick Quick quote
+Quote Post
post Dec 4 2013, 07:45:39
Post #6
BAN
Banned till
Jul 10 2020, 19:07:34



))) забеспокоился?)) конечно об исполнителе)))
Go to the top of the page
  Insert nick Quick quote
+Quote Post
post Dec 4 2013, 19:42:55
Post #7

Два Литра
**
Group: Завсегдатай
Posts: 175
Releases: 0
From: Чуркестан
On Forums: 13 years 2 weeks
Thanks: 17 time(s)
Uzbekistan


Я извиняюсь, что вызвал столь непродуктивную дискуссию/
Go to the top of the page
  Insert nick Quick quote
+Quote Post
post Dec 4 2013, 21:06:10
Post #8

Маньяк
**********
Group: Металариец
Posts: 1,024
Releases: 0
From: Vinland
On Forums: 7 years 10 months
Thanks: 1217 time(s)
United States


ЦИТАТА
Rasmus Rasmussen committed suicide in the year of 2012.

И мы рады весьма сему событию.
Go to the top of the page
  Insert nick Quick quote
+Quote Post
post Dec 4 2013, 22:58:22
Post #9

Три Литра
***
Group: Завсегдатай
Posts: 214
Releases: 0
On Forums: 10 years 7 months
Thanks: 230 time(s)
Unknown


ЦИТАТА(Grimmsberg @ Dec 3 2013, 12:59:14) *
однозначно недочеловеком

так вернее, ибо нефиг cpaкой торговать

ЦИТАТА(Goatrex @ Dec 5 2013, 02:06:10) *
И мы рады весьма сему событию.

о, да!
Go to the top of the page
  Insert nick Quick quote
+Quote Post

Reply to this topicStart new topic
2 User(s) are reading this topic (2 Guests and 0 Anonymous Users)
0 Members:

 



- Lo-Fi Version Support form
Copyrights and abuse reports form
Time is now: 22nd September 2020 - 08:23:21