Welcome Guest ( Log In | Register )

> Derogatory - Above All Else (2013), Old School Death Metal
post Dec 6 2013, 05:52:24
Post #1

Правь статус, ####!111
**************
Group: Металариец
Posts: 12,598
Releases: 9039
From: Г.Харьков
On Forums: 5 years 11 months
Thanks: 146210 time(s)
Unknown


(IMG:http://metalarea.org/images/audiocovers/2013_Dec/acov_tid214077_thumb.jpg)

*Artist: Derogatory
*Album: Above All Else
*Year: 2013
*Genre: Old School Death Metal
*Country: United States (IMG:http://metalarea.org/forum/style_images/flags/United%20States.png)
*Format: mp3@CBR320kbps
*Size: 80MB

Tracklist:
01.Intro 01:03
02.Into the Depth of Time 03:50
03.Cryopreservation 05:10
04.Above All Else 05:45
05.Immortal Divine 03:28
06.Foretold In My House Of Seance 04:27
07.Genotaph 04:36
08.Twisted Aeons of Burning Galaxy 04:48
09.To Escape What is Now 06:04
******************************
Total playing time: 39:11

Preview 1


Extended info


Technical info
(IMG:http://metalarea.org/images/spectrogram/2013_Dec/381fd5b71dee67a23c93ae1938ba2676.png)
Input File: 02 - Into the Depth of Time.mp3
Channels : 2
Sample Rate : 44100
Precision : 16-bit
Duration : 00:03:49.64 = 10127168 samples = 17223.1 CDDA sectors
File Size : 9.31M
Bit Rate : 324k
Sample Encoding: MPEG audio (layer I, II or III)
Comments :
Title=Into the Depth of Time
Artist=Derogatory
Album=Above All Else
Tracknumber=2/9
Year=2013
Genre=Death Metal
Discnumber=1/1



Register


This post has been edited by Samaritianin: Mar 22 2014, 16:07:14


Вернуться к началу страницы
  Insert nick Quick quote
+Цитировать сообщение
 
Создать новую тему
Replies (1 - 8)
post Dec 6 2013, 09:32:29
Post #2

Сталин придёт за тобой...
***********
Group: Металариец
Posts: 1,599
Releases: 0
From: Беларусь, Минск
On Forums: 10 years 9 months
Thanks: 733 time(s)
Belarus


Ошибочка в названии группы.
Derogatory


Вернуться к началу страницы
  Insert nick Quick quote
+Цитировать сообщение
post Dec 6 2013, 21:29:33
Post #3

И Ван Дамм По Делам Вашим!
**************
Group: Металариец
Posts: 15,477
Releases: 27
On Forums: 9 years 9 months
Thanks: 8176 time(s)
Honduras


Вокал хорош,муза(клип) Отдает не хило старым Пестиленсом.выкинуть бы еще из партии драммера эти дурацкие бластбиты,былобы вообще здорово.
Вернуться к началу страницы
  Insert nick Quick quote
+Цитировать сообщение
post Feb 9 2014, 12:49:10
Post #4

hearer & reader
**************
Group: Металариец
Posts: 6,148
Releases: 81
From: Moscow
On Forums: 10 years 7 months
Thanks: 6321 time(s)
Russian Federation


Вторичный, скучный и паршиво записанный шлак (IMG:style_emoticons/default/6.gif)
Вернуться к началу страницы
  Insert nick Quick quote
+Цитировать сообщение
post Mar 22 2014, 15:46:55
Post #5

Два Литра
**
Group: Завсегдатай
Posts: 192
Releases: 0
On Forums: 5 years 54 minutes
Thanks: 6 time(s)
Unknown


Re-up please? Thanks!
Вернуться к началу страницы
  Insert nick Quick quote
+Цитировать сообщение
post Mar 22 2014, 16:08:01
Post #6

Правь статус, ####!111
**************
Group: Металариец
Posts: 12,598
Releases: 9039
From: Г.Харьков
On Forums: 5 years 11 months
Thanks: 146210 time(s)
Unknown


Обновил.
Вернуться к началу страницы
  Insert nick Quick quote
+Цитировать сообщение
post Jun 21 2014, 21:24:26
Post #7

Правь статус, ####!111
**************
Group: Металариец
Posts: 5,979
Releases: 164
From: URUGUAY
On Forums: 11 years 6 months
Thanks: 13995 time(s)
Uruguay


mirror
Register
Вернуться к началу страницы
  Insert nick Quick quote
+Цитировать сообщение
post May 16 2016, 11:58:39
Post #8

...Only Death Is Real...
**************
Group: Металариец
Posts: 2,569
Releases: 15
On Forums: 7 years 8 months
Thanks: 1599 time(s)
Russian Federation


320
Register
Вернуться к началу страницы
  Insert nick Quick quote
+Цитировать сообщение
post Dec 7 2017, 06:51:27
Post #9

Crush! Kill! Destroy!
**************
Group: Металариец
Posts: 4,441
Releases: 15
From: Kaliningrad
On Forums: 10 years 5 months
Thanks: 4114 time(s)
Russian Federation


Залейте плиз!
Вернуться к началу страницы
  Insert nick Quick quote
+Цитировать сообщение

ОтветитьСоздать новую тему
2 User(s) are reading this topic (2 Guests and 0 Anonymous Users)
0 Members:

 



- Lo-Fi Version Support form
Copyrights and abuse reports form
Time is now: 19th April 2018 - 10:51:45