Welcome Guest ( Log In | Register )

> Rude Awakening - Silent Cry (1992), Power Metal
post Dec 6 2013, 13:50:50
Post #1

Serial Uploader
Group Icon
Group: V.I.P
Posts: 37,112
Releases: 35296
From: Lithuania
On Forums: 11 years 9 months
Thanks: 418068 time(s)
Lithuania


(IMG:http://metalarea.org/images/audiocovers/2013_Dec/acov_tid214103_thumb.jpg)

*Artist: Rude Awakening
*Album: Silent Cry
*Year: 1992
*Genre: Power Metal
*Country: United States (IMG:http://metalarea.org/forum/style_images/flags/United%20States.png)
*Format: mp3@CBR320kbps
*Size: 103MB

Tracklist:
01. Powers That Be 03:18
02. Couldn't Give It Up 03:40
03. Live Life 04:43
04. Silent Cry 05:51
05. The Bell 04:19
06. Death Fairies 02:31
07. The Quickening 04:49
08. Requiem 03:54
09. Dreams Must Die 05:39
10. The Gate 07:08
******************************
Total playing time: 45:52

(IMG:http://metalarea.org/images/youtube.png)

Technical info
(IMG:http://metalarea.org/images/spectrogram/2013_Dec/7d0b7242c7cf84ca0f69d01f9f41e2ad.png)
Input File: 02. Couldn\\\'t Give It Up.mp3
Channels : 2
Sample Rate : 44100
Precision : 16-bit
Duration : 00:03:40.84 = 9739088 samples = 16563.1 CDDA sectors
File Size : 8.84M
Bit Rate : 320k
Sample Encoding: MPEG audio (layer I, II or III)
Comments :
Title=䌀漀甀氀搀渀✀琀 䜀椀�攀 䤀琀 唀瀀
Artist=刀甀搀攀 䄀眀愀欀攀渀椀渀最 ⠀唀匀⤀
Album=匀椀氀攀渀琀 䌀爀礀
Tracknumber=гЂЂг€Ђ



Register


Go to the top of the page
  Insert nick Quick quote
+Quote Post
 
Start new topic
Replies (1 - 2)
post Feb 4 2020, 21:57:51
Post #2

Шесть Литров
******
Group: Металариец
Posts: 548
Releases: 115
On Forums: 1 year 2 months
Thanks: 1260 time(s)
Canada


Register


Thanks:
Go to the top of the page
  Insert nick Quick quote
+Quote Post
post Feb 8 2020, 20:14:42
Post #3


Group Icon
Group: S-moderation team
Posts: 14,859
Releases: 1440
From: Zagreb
On Forums: 9 years 1 month
Thanks: 65040 time(s)
Croatia


Register


Go to the top of the page
  Insert nick Quick quote
+Quote Post

Reply to this topicStart new topic
2 User(s) are reading this topic (2 Guests and 0 Anonymous Users)
0 Members:

 



- Lo-Fi Version Support form
Copyrights and abuse reports form
Time is now: 1st April 2020 - 09:41:59