Welcome Guest ( Log In | Register )

> Paragoria - Decomposition Of Mind (2013), Death/Thrash/Groove Metal
post Dec 9 2013, 04:03:24
Post #1

Правь статус, ####!111
**************
Group: Металариец
Posts: 24,702
Releases: 17505
From: Г.Харьков
On Forums: 8 years 8 months
Thanks: 339207 time(s)
Unknown


(IMG:http://metalarea.org/images/audiocovers/2013_Dec/acov_tid214382_thumb.jpg)

*Artist: Paragoria
*Album: Decomposition Of Mind
*Year: 2013
*Genre: Death/Thrash/Groove Metal
*Country: Slovenia (IMG:http://metalarea.org/forum/style_images/flags/Slovenia.png)
*Format: mp3@CBR320kbps
*Size: 90MB

Tracklist:
01.Abortion 04:02
02.Perilous Thoughts 03:51
03.Devoured by Artificial Guilt 04:39
04.Embryo 03:36
05.From Carcass to Soil 04:47
06.Human Mecha 04:59
07.Mass Massacre 05:56
08.Moribund Inborn 04:35
09.Myth of Justice 03:43
10.Last Wish 04:03
******************************
Total playing time: 44:11

Preview 1
(IMG:http://metalarea.org/images/myspace.png)


Extended info
Track number 3 -192kpbs


Technical info
(IMG:http://metalarea.org/images/spectrogram/2013_Dec/cbfaa2d101f5ec1133b7dda8f1938c01.png)
Input File: 02-Perilous thoughts.mp3
Channels : 2
Sample Rate : 44100
Precision : 16-bit
Duration : 00:03:51.89 = 10226481 samples = 17392 CDDA sectors
File Size : 9.28M
Bit Rate : 320k
Sample Encoding: MPEG audio (layer I, II or III)
Comments :
Title=Perilous Thoughts
Artist=Paragoria
Album=Decomposition of Mind
Tracknumber=2/10
Year=2013
Genre=Death Metal



Register


Go to the top of the page
  Insert nick Quick quote
+Quote Post
 
Start new topic
Replies (1 - 2)
post Jun 9 2015, 22:40:32
Post #2

...Only Death Is Real...
**************
Group: Металариец
Posts: 2,924
Releases: 19
On Forums: 10 years 6 months
Thanks: 1935 time(s)
Antarctica


320
Register
Go to the top of the page
  Insert nick Quick quote
+Quote Post
post Nov 21 2020, 12:38:08
Post #3

Groove/Industrial/Aggressive Nu Metal
**************
Group: Металариец
Posts: 2,628
Releases: 65
From: Technical Death из 90-х
On Forums: 10 years 6 months
Thanks: 5928 time(s)
Unknown


Register
Go to the top of the page
  Insert nick Quick quote
+Quote Post

Reply to this topicStart new topic
1 User(s) are reading this topic (1 Guests and 0 Anonymous Users)
0 Members:

 



- Lo-Fi Version Support form
Copyrights and abuse reports form
Time is now: 27th January 2021 - 20:30:23