Welcome Guest ( Log In | Register )

> Sewer - Satanic Requiem (2013), Extreme Raw Black Metal
post Dec 13 2013, 18:52:09
Post #1

Satan Soldier
**************
Group: Металариец
Posts: 2,240
Releases: 603
From: IN HELL
On Forums: 7 years 1 month
Thanks: 14105 time(s)
France


(IMG:http://metalarea.org/images/audiocovers/nocover.gif)

*Artist: Sewer
*Album: Satanic Requiem
*Year: 2013
*Genre: Extreme Raw Black Metal
*Country: United States (IMG:http://metalarea.org/forum/style_images/flags/United%20States.png)
*Format: mp3@CBR320kbps
*Size: 82MB

Tracklist:
01. Ancient Shrine
02. A Sword Of Ages
03. Profanation Storms
04. Satanic Requiem
05. The Grave And The Cross
******************************
Total playing time: 36:16

(IMG:http://metalarea.org/images/youtube.png)

Technical info
(IMG:http://metalarea.org/images/spectrogram/2013_Dec/141db8b94d9184701cb4bb22f3d8e2fb.png)
Input File: Sewer - 1 - Ancient Shrine.mp3
Channels : 2
Sample Rate : 44100
Precision : 16-bit
Duration : 00:06:34.36 = 17391056 samples = 29576.6 CDDA sectors
File Size : 15.8M
Bit Rate : 320k
Sample Encoding: MPEG audio (layer I, II or III)



Register


Go to the top of the page
  Insert nick Quick quote
+Quote Post
 
Start new topic
Replies (1 - 3)
post Dec 14 2013, 11:55:17
Post #2

Стайер.
***
Group: Завсегдатай
Posts: 221
Releases: 0
From: г.Кулебаки, Нижегородская обл., Россия
On Forums: 10 years 11 months
Thanks: 91 time(s)
Russian Federation


Лютый замес.
Go to the top of the page
  Insert nick Quick quote
+Quote Post
post Feb 14 2020, 01:31:14
Post #3

Правь статус, ####!111
**************
Group: Металариец
Posts: 7,405
Releases: 0
From: Москва
On Forums: 10 years 6 months
Thanks: 13687 time(s)
Russian Federation


Перезалейте плз
Go to the top of the page
  Insert nick Quick quote
+Quote Post
post Feb 14 2020, 08:04:26
Post #4

Добрый
**************
Group: Металариец
Posts: 3,239
Releases: 0
On Forums: 1 year 7 months
Thanks: 4147 time(s)
Russian Federation


82 mb/320 kbps
Register


Thanks:
(1) kim666,
Go to the top of the page
  Insert nick Quick quote
+Quote Post

Reply to this topicStart new topic
2 User(s) are reading this topic (2 Guests and 0 Anonymous Users)
0 Members:

 



- Lo-Fi Version Support form
Copyrights and abuse reports form
Time is now: 19th February 2020 - 23:08:11