Welcome Guest ( Log In | Register )

> Spell Forest - Catastrophe Altar (2013), Black Metal
post Dec 13 2013, 19:05:29
Post #1

Литр
*
Group: Подсевший
Posts: 78
Releases: 32
On Forums: 8 years 6 months
Thanks: 462 time(s)
Brazil


(IMG:http://metalarea.org/images/audiocovers/2013_Dec/acov_tid214742_thumb.jpg)

*Artist: Spell Forest
*Album: Catastrophe Altar
*Year: 2013
*Genre: Black Metal
*Country: Brazil (IMG:http://metalarea.org/forum/style_images/flags/Brazil.png)
*Format: mp3@CBR320kbps
*Size: 99MB

Tracklist:
01. Venerabilis Agios Baphomet 01:01
02. Calix 03:20
03. Catastrophe Altar 06:41
04. Conventum 01:09
05. Lunae 05:06
06. Salutare 04:26
07. Candelarum 05:47
08. Noctum 02:13
09. Tredicim Animas 04:57
10. Sinistre 06:51
11. Rebellionis 03:44
******************************
Total playing time: 45:15

Technical info
(IMG:http://metalarea.org/images/spectrogram/2013_Dec/c9e74d6b2278ad9db6ba340cc3eef47b.png)
Input File: 8-noctum.mp3
Channels : 2
Sample Rate : 44100
Precision : 16-bit
Duration : 00:02:13.40 = 5882764 samples = 10004.7 CDDA sectors
File Size : 5.34M
Bit Rate : 320k
Sample Encoding: MPEG audio (layer I, II or III)
Comments :
Tracknumber=1
Year=2013


Extended info (by aesteticvice)
Pestiferat XIII - Drums
Lord Mephyr - Vocals, Guitars, Keyboards (1998-present), Bass (2007-present)
See also: Cruor Cultum, ex-Mythological Cold Towers, ex-Vulturine, ex-Templum

Register

Register


This post has been edited by DarkHorde: Dec 14 2013, 10:06:35


Go to the top of the page
  Insert nick Quick quote
+Quote Post
 
Start new topic
Replies (1 - 9)
post Dec 13 2013, 22:47:26
Post #2

satanath@mail.ru
Group Icon
Group: Moderation team
Posts: 5,994
Releases: 645
From: Satan-Petersburg
On Forums: 9 years 1 week
Thanks: 15185 time(s)
Russian Federation


Added links by aesteticvice


Thanks:
(1) DarkHorde,
Go to the top of the page
  Insert nick Quick quote
+Quote Post
post Dec 13 2013, 22:53:12
Post #3

Маньяк
**********
Group: Металариец
Posts: 1,244
Releases: 15
From: RU
On Forums: 9 years 9 months
Thanks: 1226 time(s)
Russian Federation


Интересный звук в превьюхе, клавишные как будто на пластинке какой записаны, атмосферно выходит.
Go to the top of the page
  Insert nick Quick quote
+Quote Post
post Dec 14 2013, 02:13:19
Post #4

..ще до загибелі
**********
Group: Металариец
Posts: 1,156
Releases: 0
From: Мати Руських Міст
On Forums: 8 years 8 months
Thanks: 926 time(s)
Ukraine


шайтанэ, (IMG:style_emoticons/default/true_black.gif) , несмотря на идиотский корпс, этот бразильянский Канвульфыч всегда доставлял мне красоту пейзажных музыкалень
Go to the top of the page
  Insert nick Quick quote
+Quote Post
post Dec 16 2013, 19:49:35
Post #5

Sacredsacrifice
**
Group: Завсегдатай
Posts: 118
Releases: 0
From: Tehran
On Forums: 11 years 11 months
Thanks: 81 time(s)
Iran


Please Edit Tags Before Uploading
Go to the top of the page
  Insert nick Quick quote
+Quote Post
post Dec 16 2013, 20:13:49
Post #6

Маньяк
**********
Group: Металариец
Posts: 1,332
Releases: 338
From: Масква
On Forums: 14 years 1 month
Thanks: 3553 time(s)
Russian Federation


ЦИТАТА(SSBandera @ Dec 14 2013, 05:13:19) *
шайтанэ, (IMG:style_emoticons/default/true_black.gif) , несмотря на идиотский корпс, этот бразильянский Канвульфыч всегда доставлял мне красоту пейзажных музыкалень


Тебе не нравится именно его корпс ?
Go to the top of the page
  Insert nick Quick quote
+Quote Post
post Dec 18 2013, 09:42:59
Post #7

..ще до загибелі
**********
Group: Металариец
Posts: 1,156
Releases: 0
From: Мати Руських Міст
On Forums: 8 years 8 months
Thanks: 926 time(s)
Ukraine


ЦИТАТА(Ildjarn @ Dec 16 2013, 21:13:49) *
Тебе не нравится именно его корпс ?

Мефира.
Go to the top of the page
  Insert nick Quick quote
+Quote Post
post Apr 30 2017, 21:10:29
Post #8

Литр
*
Group: Подсевший
Posts: 82
Releases: 0
From: Новороссийск
On Forums: 11 years 2 months
Thanks: 9 time(s)
Russian Federation


перезалейте пожалуйста
Go to the top of the page
  Insert nick Quick quote
+Quote Post
post May 6 2017, 17:10:53
Post #9

Going home. Flying high.
**************
Group: Металариец
Posts: 12,947
Releases: 0
From: The Land of Shadows
On Forums: 13 years 3 months
Thanks: 21974 time(s)
Russian Federation


from the web
Register
Go to the top of the page
  Insert nick Quick quote
+Quote Post
post Apr 15 2018, 00:54:26
Post #10

Правь статус, ####!111
**************
Group: Металариец
Posts: 3,995
Releases: 1019
From: Brazil
On Forums: 7 years 9 months
Thanks: 37815 time(s)
Brazil


Register

mp3@CBR320kbps + scans


Thanks:
(1) juand,
Go to the top of the page
  Insert nick Quick quote
+Quote Post

Reply to this topicStart new topic
1 User(s) are reading this topic (1 Guests and 0 Anonymous Users)
0 Members:

 



- Lo-Fi Version Support form
Copyrights and abuse reports form
Time is now: 20th November 2019 - 23:34:54