Welcome Guest ( Log In | Register )

> Pagan Reign - 10 Лет Живя И Славя [live] (2013), Pagan/Folk Metal
zombiek78
post Dec 14 2013, 11:18:15
Post #1

Guests team






(IMG:http://metalarea.org/images/audiocovers/2013_Dec/acov_tid214762_thumb.jpg)

*Artist: Pagan Reign
*Album: 10 Лет Живя И Славя [live]
*Year: 2013
*Genre: Pagan/Folk Metal
*Country: Russian Federation (IMG:http://metalarea.org/forum/style_images/flags/Russian%20Federation.png)
*Format: mp3@CBR320kbps
*Size: 143MB

Tracklist:
1. Огонь Сварожий Осветит Наши Земли
2. Ветер Прошлого
3. Рассвет
4. Пролитая Кровь
5. Праведный Бой
6. Бессмертное Племя
7. Меч Воина
8. Разгулялось Красно Солнышко
9. Хранитель Древности
10. В Объятиях Зимы
11. Во Времена Былин
******************************
Total playing time: 1:02:21

Technical info
(IMG:http://metalarea.org/images/spectrogram/2013_Dec/2a8feb86a43cae75e643b0ef189b9e38.png)
Input File: 02 Ветер прошлого.mp3
Channels : 2
Sample Rate : 44100
Precision : 16-bit
Duration : 00:05:48.85 = 15384197 samples = 26163.6 CDDA sectors
File Size : 14.1M
Bit Rate : 324k
Sample Encoding: MPEG audio (layer I, II or III)
Comments :
Title=Ветер прошлого
Genre=Pagan Folk Metal



Register


This post has been edited by Абигор: Dec 14 2013, 11:20:57


Go to the top of the page
  Insert nick Quick quote
+Quote Post
 
Start new topic
Replies (1 - 6)
post Dec 14 2013, 13:16:03
Post #2

Литр
*
Group: Подсевший
Posts: 83
Releases: 13
On Forums: 13 years 6 months
Thanks: 188 time(s)
Russian Federation


(IMG:style_emoticons/default/true_black.gif) (IMG:style_emoticons/default/true_black.gif) (IMG:style_emoticons/default/true_black.gif) (IMG:style_emoticons/default/true_black.gif) (IMG:style_emoticons/default/true_black.gif) (IMG:style_emoticons/default/true_black.gif)
Go to the top of the page
  Insert nick Quick quote
+Quote Post
post Dec 14 2013, 18:26:54
Post #3

Group: Подсевший
Posts: 30
Releases: 0
From: Химки
On Forums: 11 years 4 months
Thanks: 15 time(s)
Russian Federation


вот это новость! Нежданно-негадано (хотя жданно и гадано, ходят слухи о возобновлении деятельности). Году в 2004-2005 дико нравились. Спасибо!
Go to the top of the page
  Insert nick Quick quote
+Quote Post
post Dec 14 2013, 19:06:39
Post #4

Necromancer
Group Icon
Group: Curation team
Posts: 10,886
Releases: 271
From: Зеленоград
On Forums: 12 years 8 months
Thanks: 8723 time(s)
Russian Federation


Ну, телега об этом ДВД уже не первый день по сети катается, так что нежданчиком этот релиз не назовёшь. Да, мне эта группа тоже нравилась в своё время. Все их альбомы у меня на CD есть. и если они снова возьмутся за дело то это будет хорошо.
Go to the top of the page
  Insert nick Quick quote
+Quote Post
post Dec 15 2013, 14:30:48
Post #5

Group: Подсевший
Posts: 36
Releases: 0
From: Москва
On Forums: 12 years 7 months
Thanks: 6 time(s)
Russian Federation


Да,отличная группа была в свое время. От Орея уже ждать ничего не стоит, и Ветродар притих с Твердью(IMG:style_emoticons/default/smile2.gif)
Go to the top of the page
  Insert nick Quick quote
+Quote Post
post Dec 15 2013, 15:41:42
Post #6

Русь Понад Усе!
**************
Group: Металариец
Posts: 4,179
Releases: 15
From: Украина
On Forums: 11 years 9 months
Thanks: 1622 time(s)
Ukraine


Группа вроде же в активном состоянии (IMG:style_emoticons/default/bye.gif)
Go to the top of the page
  Insert nick Quick quote
+Quote Post
post Mar 26 2019, 15:47:16
Post #7


Group Icon
Group: S-moderation team
Posts: 10,813
Releases: 1438
From: Zagreb
On Forums: 8 years 3 months
Thanks: 46713 time(s)
Croatia


please reup
Go to the top of the page
  Insert nick Quick quote
+Quote Post

Reply to this topicStart new topic
1 User(s) are reading this topic (1 Guests and 0 Anonymous Users)
0 Members:

 



- Lo-Fi Version Support form
Copyrights and abuse reports form
Time is now: 19th June 2019 - 20:54:08