Welcome Guest ( Log In | Register )

> Four-O-Five Code - Four-O-Five Code (2013), Modern Melodic Death Metal
post Dec 17 2013, 12:27:55
Post #1

Аннигилятор пивА
Group Icon
Group: V.I.P
Posts: 52,360
Releases: 16550
From: Koenigsberg - TILZIT
On Forums: 13 years 10 months
Thanks: 364720 time(s)
Russian Federation


(IMG:http://metalarea.org/images/audiocovers/2013_Dec/acov_tid214939_thumb.jpg)

*Artist: Four-O-Five Code
*Album: Four-O-Five Code
*Year: 2013
*Genre: Modern Melodic Death Metal
*Country: France (IMG:http://metalarea.org/forum/style_images/flags/France.png)
*Format: mp3@CBR320kbps
*Size: 125MB

Tracklist:
01. 13 Hours 00:59
02. Dead From Within 04:55
03. Smashing the Demons 04:14
04. Escape From Hell 04:12
05. Bird's Cage 04:59
06. Shaped Lke Clay 04:11
07. Follow The Fading Light 04:57
08. Shut The Voices 04:42
09. Her Gun told Her 04:24
10. Dead Horseman 05:01
11. Blind Belief 04:10
12. Black Sheep on Board 03:32
******************************
Total playing time: 50:16



Extended info
Devf(lead vocals), Florian(Guitars), Romain(Guitars), Thomas(Bass), Räv Grave(Drums)


Technical info
(IMG:http://metalarea.org/images/spectrogram/2013_Dec/d445d1a41cea4e9b07c88575fc54170a.png)
Input File: Four-O-Five Code - Four-O-Five Code - 02 Dead from within.mp3
Channels : 2
Sample Rate : 44100
Precision : 16-bit
Duration : 00:04:55.68 = 13039532 samples = 22176.1 CDDA sectors
File Size : 12.2M
Bit Rate : 329k
Sample Encoding: MPEG audio (layer I, II or III)
Comments :
Title=Dead from within
Artist=Four-O-Five Code
Album=Four-O-Five Code
Tracknumber=2
Year=2013



Register


Go to the top of the page
  Insert nick Quick quote
+Quote Post
 
Start new topic
Replies (1 - 6)
post Dec 17 2013, 17:19:35
Post #2

Волк без яблока
**************
Group: Металариец
Posts: 13,437
Releases: 108
From: Санкт-Петербург
On Forums: 13 years 6 months
Thanks: 15488 time(s)
Russian Federation


Скорее, мдм/металкор, ооочень унылый и с абсолютно невыносимым звуком гитар, как обычно.
Go to the top of the page
  Insert nick Quick quote
+Quote Post
post Dec 21 2013, 18:45:23
Post #3

Статус-хиатус
**************
Group: Металариец
Posts: 2,640
Releases: 7
From: гости
On Forums: 12 years 6 months
Thanks: 1083 time(s)
Ukraine




Thanks:
(1) Elk,
Go to the top of the page
  Insert nick Quick quote
+Quote Post
post Dec 22 2013, 09:58:34
Post #4

Ъ
**************
Group: Металариец
Posts: 10,018
Releases: 9
On Forums: 11 years 2 months
Thanks: 1990 time(s)
Sweden


Третьесортное говно. шифт+дел
Go to the top of the page
  Insert nick Quick quote
+Quote Post
post Dec 22 2013, 11:32:02
Post #5

мир, доброта, гуттурал
**********
Group: Металариец
Posts: 1,142
Releases: 24
From: Питер
On Forums: 10 years 7 months
Thanks: 1032 time(s)
Zimbabwe


Пара слушабельных треков есть, но в целом довольно скромненько. Слишком уж нежно и слащаво.
Go to the top of the page
  Insert nick Quick quote
+Quote Post
post Oct 28 2014, 14:54:26
Post #6

Мегаманьяк
***********
Group: Металариец
Posts: 1,597
Releases: 24
On Forums: 9 years 10 months
Thanks: 3497 time(s)
Unknown


mp3@CBR 320kbps
Register
Go to the top of the page
  Insert nick Quick quote
+Quote Post
post Nov 18 2014, 15:56:49
Post #7

but I'm white and furry
**********
Group: Металариец
Posts: 1,293
Releases: 453
From: Москва
On Forums: 14 years 1 month
Thanks: 5791 time(s)
Russian Federation


Удобное превью с возможностью скачать хоть в mp3@320, хоть в flac:
Go to the top of the page
  Insert nick Quick quote
+Quote Post

Reply to this topicStart new topic
2 User(s) are reading this topic (2 Guests and 0 Anonymous Users)
0 Members:

 



- Lo-Fi Version Support form
Copyrights and abuse reports form
Time is now: 8th April 2020 - 03:25:27