Welcome Guest ( Log In | Register )

> И неформату есть предел.

Рэп/хип-хоп/шансон/поп удаляются. Для них есть свои порталы.

 
Reply to this topicStart new topic
> Ben Woods - An Attempt To Fly (2013), Ambient/Modern Classical (D8)
post Dec 24 2013, 21:30:37
Post #1

Статус-хиатус
**************
Group: Металариец
Posts: 2,640
Releases: 7
From: гости
On Forums: 12 years 6 months
Thanks: 1083 time(s)
Ukraine


(IMG:http://metalarea.org/images/audiocovers/2013_Dec/acov_tid215372_thumb.jpg)

*Artist: Ben Woods
*Album: An Attempt To Fly
*Year: 2013
*Genre: Ambient/Modern Classical
*Country: United Kingdom (IMG:http://metalarea.org/forum/style_images/flags/United%20Kingdom.png)
*Format: mp3@CBR320kbps
*Size: 108MB

Tracklist:
01. An Attempt To Fly 02:29
02. With Open Arms 04:04
03. Another Dream 04:15
04. This Light of Ours 06:04
05. Lines in the Sky 02:24
06. Stars Above You 03:14
07. A Leap of Faith 05:57
08. Fond of You 07:19
09. Disappear 05:23
10. Goodbye My Friend 05:32
******************************
Total playing time: 46:41



Extended info
Эмбиент, пианина, слой под скрипочку. Летаем в облаках.


Technical info
(IMG:http://metalarea.org/images/spectrogram/2013_Dec/54c50d44fb4ac4bc0b0405a6788075d0.png)
Input File: 05 - Lines in the Sky.mp3
Channels : 2
Sample Rate : 44100
Precision : 16-bit
Duration : 00:02:24.39 = 6367687 samples = 10829.4 CDDA sectors
File Size : 5.95M
Bit Rate : 330k
Sample Encoding: MPEG audio (layer I, II or III)
Comments :
Title=Lines in the Sky
Artist=Ben Woods
Album=An Attempt To Fly
Tracknumber=5
Year=2013



Register


Go to the top of the page
  Insert nick Quick quote
+Quote Post

Reply to this topicStart new topic
2 User(s) are reading this topic (2 Guests and 0 Anonymous Users)
0 Members:

 



- Lo-Fi Version Support form
Copyrights and abuse reports form
Time is now: 8th April 2020 - 03:47:18