Welcome Guest ( Log In | Register )

> Narath - Mindframe [demo] (2005), Black Metal
post Dec 25 2013, 14:43:54
Post #1

Пять Литров
*****
Group: Металариец
Posts: 499
Releases: 145
From: Питер
On Forums: 14 years 3 months
Thanks: 1809 time(s)
Russian Federation


(IMG:http://metalarea.org/images/audiocovers/2013_Dec/acov_tid215397_thumb.jpg)

*Artist: Narath
*Album: Mindframe [demo]
*Year: 2005
*Genre: Black Metal
*Country: Russian Federation (IMG:http://metalarea.org/forum/style_images/flags/Russian%20Federation.png)
*Format: mp3@CBR320kbps
*Size: 99MB

Tracklist:
01. Mindframe 43:50
******************************
Total playing time: 43:50



Technical info
(IMG:http://metalarea.org/images/spectrogram/2013_Dec/10f1b3affe98e0e894e0384bb4652cae.png)
Input File: 1.Mindframe (5m 00s).mp3
Channels : 2
Sample Rate : 44100
Precision : 16-bit
Duration : 00:05:00.15 = 13236615 samples = 22511.2 CDDA sectors
File Size : 12.0M
Bit Rate : 320k
Sample Encoding: MPEG audio (layer I, II or III)
Comments :
Title=Mindframe
Artist=Narath
Album=Mindframe (Demo)
Tracknumber=1
Year=2005
Genre=Black Metal



Register


This post has been edited by DarkHorde: Dec 26 2013, 11:04:23


Go to the top of the page
  Insert nick Quick quote
+Quote Post
 
Start new topic
Replies (1 - 1)
post Jul 22 2019, 12:09:23    Сейчас играет: Impure - Danse of Slaughtered Cherubs
Post #2

antithesis
**************
Group: Металариец
Posts: 2,984
Releases: 33
From: VRN
On Forums: 9 years 10 months
Thanks: 1845 time(s)
Russian Federation


reuploaded
Register


Thanks:
Go to the top of the page
  Insert nick Quick quote
+Quote Post

Reply to this topicStart new topic
1 User(s) are reading this topic (1 Guests and 0 Anonymous Users)
0 Members:

 



- Lo-Fi Version Support form
Copyrights and abuse reports form
Time is now: 4th April 2020 - 23:18:33