Welcome Guest ( Log In | Register )

> Стальное Сердце - В Пути [ep] (2013), Heavy Metal
post Dec 26 2013, 16:17:24
Post #1

Thrash, Beer & Violence
**************
Group: Металариец
Posts: 5,503
Releases: 2772
From: Крестов Брод (Russland)
On Forums: 14 years 3 months
Thanks: 40837 time(s)
Russian Federation


(IMG:http://metalarea.org/images/audiocovers/2013_Dec/acov_tid215438_thumb.jpg)

*Artist: Стальное Сердце
*Album: В Пути [ep]
*Year: 2013
*Genre: Heavy Metal
*Country: Russian Federation (IMG:http://metalarea.org/forum/style_images/flags/Russian%20Federation.png)
*Format: mp3@CBR320kbps
*Size: 20MB

Tracklist:
1. Судьба Байкера 03:37
2. Дорога Войны 05:01
******************************
Total playing time: 8:38

Вконтакте

Technical info
(IMG:http://metalarea.org/images/spectrogram/2013_Dec/91065ab7e86c3d9156bb4c987c2cb1e7.png)
Input File: 1. Судьба Байкера.mp3
Channels : 2
Sample Rate : 44100
Precision : 16-bit
Duration : 00:03:37.42 = 9588178 samples = 16306.4 CDDA sectors
File Size : 8.70M
Bit Rate : 320k
Sample Encoding: MPEG audio (layer I, II or III)
Comments :
Title=Ñóäüáà Áàéêåðà
Artist=Ñòàëüíîå Ñåðäöå
Album=Г‚ ГЏГіГІГЁ
Year=2013
Genre=Hard-n-Heavy, Thrash Metal



Register


Go to the top of the page
  Insert nick Quick quote
+Quote Post
 
Start new topic
Replies (1 - 8)
post Dec 26 2013, 17:49:16
Post #2

Четыре Литра
****
Group: Металариец
Posts: 392
Releases: 0
From: Челябинск
On Forums: 14 years 9 months
Thanks: 160 time(s)
Russian Federation


Про байкеров. Интересно.


Thanks:
Go to the top of the page
  Insert nick Quick quote
+Quote Post
post Dec 26 2013, 18:46:39
Post #3

northern redneck
**********
Group: Металариец
Posts: 1,050
Releases: 4
On Forums: 13 years 11 months
Thanks: 1407 time(s)
Russian Federation


ЦИТАТА(metadeat @ Dec 26 2013, 19:17:24) *
*Album: В. Путин [ep]

политота врывается в тред



Go to the top of the page
  Insert nick Quick quote
+Quote Post
post Dec 27 2013, 10:26:34
Post #4

Necromancer
Group Icon
Group: Curation team
Posts: 11,046
Releases: 271
From: Зеленоград
On Forums: 15 years 3 months
Thanks: 8926 time(s)
Russian Federation


Ну, лет в восемнадцать, когда бунтарство в сердце и прочая мишура, мне бы это может быть и понравилось, но сейчас ничего кроме улыбки и иронии такая штучка не вызывает.


Thanks:
Go to the top of the page
  Insert nick Quick quote
+Quote Post
post Dec 27 2013, 16:36:12
Post #5

Четыре Литра
****
Group: Металариец
Posts: 392
Releases: 0
From: Челябинск
On Forums: 14 years 9 months
Thanks: 160 time(s)
Russian Federation


Я вот и вспомнил свои 18 лет и "Восход-3М".
Go to the top of the page
  Insert nick Quick quote
+Quote Post
post Dec 27 2013, 16:57:13
Post #6

brutalcesar
**************
Group: Металариец
Posts: 18,281
Releases: 72
From: Рязань
On Forums: 13 years 1 week
Thanks: 10444 time(s)
Russian Federation


13 лет и адский агрегат "Верховина" !!
Go to the top of the page
  Insert nick Quick quote
+Quote Post
post Dec 27 2013, 17:13:29
Post #7

Четыре Литра
****
Group: Металариец
Posts: 392
Releases: 0
From: Челябинск
On Forums: 14 years 9 months
Thanks: 160 time(s)
Russian Federation


На "Верховине" так и не ездил. Но зато лихо навернулся с "Минска" и "Рига-13"!


Thanks:
(1) metadeat,
Go to the top of the page
  Insert nick Quick quote
+Quote Post
post Dec 27 2013, 19:55:54
Post #8

Thrash, Beer & Violence
**************
Group: Металариец
Posts: 5,503
Releases: 2772
From: Крестов Брод (Russland)
On Forums: 14 years 3 months
Thanks: 40837 time(s)
Russian Federation


(IMG:style_emoticons/default/crazy.gif) Рига-13 культ пацанов восьмидесятых... Верховина и Карпаты - мечта...
Go to the top of the page
  Insert nick Quick quote
+Quote Post
post Dec 29 2013, 08:16:09
Post #9

brutalcesar
**************
Group: Металариец
Posts: 18,281
Releases: 72
From: Рязань
On Forums: 13 years 1 week
Thanks: 10444 time(s)
Russian Federation


Послушал.
Банально и сыровато.
Go to the top of the page
  Insert nick Quick quote
+Quote Post

Reply to this topicStart new topic
1 User(s) are reading this topic (1 Guests and 0 Anonymous Users)
0 Members:

 



- Lo-Fi Version Support form
Copyrights and abuse reports form
Time is now: 24th January 2022 - 15:51:11