Welcome Guest ( Log In | Register )

> Aeons Confer - Symphonies Of Saturnus (2013), Symphonic Black/Death Metal
post Dec 31 2013, 04:28:57
Post #1

Правь статус, ####!111
**************
Group: Металариец
Posts: 19,818
Releases: 13447
From: Г.Харьков
On Forums: 7 years 7 months
Thanks: 232576 time(s)
Unknown


(IMG:http://metalarea.org/images/audiocovers/2013_Dec/acov_tid215717_thumb.jpg)

*Artist: Aeons Confer
*Album: Symphonies Of Saturnus
*Year: 2013
*Genre: Symphonic Black/Death Metal
*Country: Germany (IMG:http://metalarea.org/forum/style_images/flags/Germany.png)
*Format: mp3@CBR320kbps
*Size: 168MB

Tracklist:
01.Signals 02:32
02.ESP 03:53
03.Colossal Void 04:40
04.Probe 06:15
05.Alienate 06:29
06.Aeonized 03:52
07.Aeons to Come 05:17
08.Descent 07:40
09.Renaissance 12:34
10.The Order of Equilibrium 03:45
11.Symphonies of Saturnus - The Inheritance 03:56
12.Symphonies of Saturnus - The Proof 05:15
13.Symphonies of Saturnus - The Synthesis 09:01
14.Sypremacy 03:13
******************************
Total playing time: 1:18:22

Preview 1
(IMG:http://metalarea.org/images/myspace.png)


Extended info


Technical info
(IMG:http://metalarea.org/images/spectrogram/2013_Dec/5be652664154ebb3cbf2bd18700e5638.png)
Input File: 02 - ESP.mp3
Channels : 2
Sample Rate : 44100
Precision : 16-bit
Duration : 00:03:53.85 = 10312653 samples = 17538.5 CDDA sectors
File Size : 9.39M
Bit Rate : 321k
Sample Encoding: MPEG audio (layer I, II or III)
Comments :
Title=ESP
Artist=Aeons Confer
Album=Symphonies Of Saturnus
Tracknumber=2/14
Year=2013
Genre=Metal
Discnumber=1/1



Register


Go to the top of the page
  Insert nick Quick quote
+Quote Post
 
Start new topic
Replies (1 - 7)
post Dec 31 2013, 10:51:19
Post #2

hearer & reader
**************
Group: Металариец
Posts: 8,234
Releases: 111
From: Moscow
On Forums: 12 years 3 months
Thanks: 7768 time(s)
Russian Federation


ЦИТАТА
Modern Symphonic Dark Metal

так считают артисты.
По мне, так просто modern hard 'n heavy. Мэйнстримного разлива (IMG:style_emoticons/default/22.gif)
Блэк/дэс остался в далеком прошлом?
Go to the top of the page
  Insert nick Quick quote
+Quote Post
post Dec 31 2013, 12:26:17
Post #3

Grind the Human Scum
*********
Group: Металариец
Posts: 970
Releases: 18
On Forums: 12 years 11 months
Thanks: 909 time(s)
Russian Federation


первая демка этой команды была очень хороша (IMG:style_emoticons/default/pray.gif) , вторая как то мимо прошла (IMG:style_emoticons/default/21.gif) , посмотрим что тут, хотя и так понятно - modern symphonic dark metal, как они же и утверждают. (IMG:style_emoticons/default/fear.gif) (IMG:style_emoticons/default/bye.gif)
Go to the top of the page
  Insert nick Quick quote
+Quote Post
post Dec 3 2019, 17:08:56
Post #4

Group: Подсевший
Posts: 13
Releases: 0
On Forums: 1 year 8 months
Thanks: 12 time(s)
Unknown


Any chance for re-upload? I really dig in their recent album, would like to try this album as well.
Go to the top of the page
  Insert nick Quick quote
+Quote Post
post Dec 3 2019, 18:52:21
Post #5

Два Литра
**
Group: Завсегдатай
Posts: 132
Releases: 0
On Forums: 11 years 5 months
Thanks: 192 time(s)
Russian Federation


cbr 320

Register


Thanks:
(1) Morgoth,
Go to the top of the page
  Insert nick Quick quote
+Quote Post
post Dec 4 2019, 07:36:10
Post #6

Group: Подсевший
Posts: 13
Releases: 0
On Forums: 1 year 8 months
Thanks: 12 time(s)
Unknown


Thanks a lot, really appreciated (IMG:style_emoticons/default/smile1.gif)
Go to the top of the page
  Insert nick Quick quote
+Quote Post
post Dec 7 2019, 07:50:29
Post #7

Group: Подсевший
Posts: 26
Releases: 0
From: France
On Forums: 2 years 4 months
Thanks: 10 time(s)
France


Need a new link thanx
Go to the top of the page
  Insert nick Quick quote
+Quote Post
post Dec 8 2019, 17:57:58
Post #8


Group Icon
Group: S-moderation team
Posts: 12,910
Releases: 1439
From: Zagreb
On Forums: 8 years 9 months
Thanks: 56026 time(s)
Croatia


Register


Thanks:
(1) Olethros,
Go to the top of the page
  Insert nick Quick quote
+Quote Post

Reply to this topicStart new topic
1 User(s) are reading this topic (1 Guests and 0 Anonymous Users)
0 Members:

 



- Lo-Fi Version Support form
Copyrights and abuse reports form
Time is now: 11th December 2019 - 03:46:40