Welcome Guest ( Log In | Register )

> Narath - XXI [rehearsal] (2013), Black Metal (D)
post Jan 1 2014, 19:40:41
Post #1

Пять Литров
*****
Group: Металариец
Posts: 499
Releases: 145
From: Питер
On Forums: 14 years 1 month
Thanks: 1805 time(s)
Russian Federation


(IMG:http://metalarea.org/images/audiocovers/2014_Jan/acov_tid215783_thumb.jpg)

*Artist: Narath
*Album: XXI [rehearsal]
*Year: 2013
*Genre: Black Metal
*Country: Russian Federation (IMG:http://metalarea.org/forum/style_images/flags/Russian%20Federation.png)
*Format: mp3@CBR320kbps
*Size: 97MB

Tracklist:
1. A Sexuality Of Grave
2. Sorrow
3. Jesus Is A Cthulhu
4. Alien
5. Pulsar
6. Destructive Visions
7. God's Secret Domain
8. Absorb Me
******************************
Total playing time: 44:01

Preview 1

Technical info
(IMG:http://metalarea.org/images/spectrogram/2014_Jan/98db13caa4eed602bd5ce22e2a5d0f8c.png)
Input File: 2.Sorrow.mp3
Channels : 2
Sample Rate : 44100
Precision : 16-bit
Duration : 00:09:17.79 = 24598671 samples = 41834.5 CDDA sectors
File Size : 22.3M
Bit Rate : 320k
Sample Encoding: MPEG audio (layer I, II or III)
Comments :
Title=Sorrow
Artist=Narath
Album=XXI (Rehearsal)
Tracknumber=2
Year=2013
Genre=Black Metal



Register


This post has been edited by satanath: Jan 1 2014, 19:45:42


Go to the top of the page
  Insert nick Quick quote
+Quote Post
 
Start new topic
Replies (1 - 2)
post Jan 1 2014, 22:06:54
Post #2

Пять Литров
*****
Group: Металариец
Posts: 405
Releases: 1
On Forums: 7 years 8 months
Thanks: 179 time(s)
South Korea


Ожидаемо кошмар.
Go to the top of the page
  Insert nick Quick quote
+Quote Post
post Nov 26 2015, 23:09:22
Post #3

ретроград
**************
Group: Металариец
Posts: 5,037
Releases: 182
On Forums: 12 years 8 months
Thanks: 7518 time(s)
Vatican City


...ну никакого БМ тут и в помине нет, но звучит очень приятно, с удовольствием послушал. Жанр мне сложно охарактеризовать, этакий легкий неоклассический индастриал метал с налётом авангарда (IMG:style_emoticons/default/crazy.gif)
Go to the top of the page
  Insert nick Quick quote
+Quote Post

Reply to this topicStart new topic
2 User(s) are reading this topic (2 Guests and 0 Anonymous Users)
0 Members:

 



- Lo-Fi Version Support form
Copyrights and abuse reports form
Time is now: 28th February 2020 - 06:21:35