Welcome Guest ( Log In | Register )

> Ramchat - Bes [ep] (2013), Black/Pagan Metal
post Jan 8 2014, 15:11:37
Post #1

Правь статус, ####!111
**************
Group: Металариец
Posts: 6,037
Releases: 5562
From: Lithuania
On Forums: 13 years 2 months
Thanks: 40775 time(s)
Lithuania


(IMG:http://metalarea.org/images/audiocovers/2014_Jan/acov_tid216217_thumb.jpg)

*Artist: Ramchat
*Album: Bes [ep]
*Year: 2013
*Genre: Black/Pagan Metal
*Country: Slovakia (IMG:http://metalarea.org/forum/style_images/flags/Slovakia.png)
*Format: mp3@CBR320kbps
*Size: 39MB

Tracklist:
1. Mor Ho 05:12
2. Mogdanec 00:53
3. Udolie Sialenstva 04:21
4. Bes 01:28
5. Posledny Pohan 05:13
******************************
Total playing time: 17:07

(IMG:http://metalarea.org/images/youtube.png)
(IMG:http://metalarea.org/images/youtube.png)

Technical info
(IMG:http://metalarea.org/images/spectrogram/2014_Jan/77a7852128dada85125e9b4a723a05ce.png)
Input File: 03 - Udolie Sialenstva.mp3
Channels : 2
Sample Rate : 44100
Precision : 16-bit
Duration : 00:04:21.47 = 11530739 samples = 19610.1 CDDA sectors
File Size : 10.5M
Bit Rate : 320k
Sample Encoding: MPEG audio (layer I, II or III)
Comments :
Artist=Ramchat
Album=Bes
Year=2013
Genre=9



Register


Go to the top of the page
  Insert nick Quick quote
+Quote Post
 
Start new topic
Replies (1 - 5)
post Feb 12 2014, 20:48:07
Post #2

Group: Подсевший
Posts: 4
Releases: 0
On Forums: 6 years 4 months
Thanks: 0 time(s)
Czech Republic


briliant Ep (IMG:style_emoticons/default/headcrab.png)
Go to the top of the page
  Insert nick Quick quote
+Quote Post
post Jul 31 2014, 15:01:38
Post #3

Vana Peerukott
**************
Group: Металариец
Posts: 3,113
Releases: 239
From: Київ, Україна
On Forums: 13 years 8 months
Thanks: 3067 time(s)
Ukraine


очень жду новый альбом.
(IMG:style_emoticons/default/metaler.gif)
Go to the top of the page
  Insert nick Quick quote
+Quote Post
post Jun 24 2016, 07:00:35
Post #4

Правь статус, ####!111
**************
Group: Металариец
Posts: 2,765
Releases: 18
From: Eternal darkness
On Forums: 12 years 1 month
Thanks: 7091 time(s)
Russian Federation


Register


Thanks:
(1) artscald,
Go to the top of the page
  Insert nick Quick quote
+Quote Post
post Dec 3 2019, 16:18:15
Post #5

Три Литра
***
Group: Завсегдатай
Posts: 270
Releases: 0
From: Moscow
On Forums: 11 years 10 months
Thanks: 18 time(s)
Russian Federation


Reupload please (IMG:style_emoticons/default/smile3.gif)
Go to the top of the page
  Insert nick Quick quote
+Quote Post
post Dec 3 2019, 18:45:07
Post #6

Два Литра
**
Group: Завсегдатай
Posts: 135
Releases: 0
On Forums: 11 years 5 months
Thanks: 196 time(s)
Russian Federation


cbr 320

Register


Thanks:
Go to the top of the page
  Insert nick Quick quote
+Quote Post

Reply to this topicStart new topic
1 User(s) are reading this topic (1 Guests and 0 Anonymous Users)
0 Members:

 



- Lo-Fi Version Support form
Copyrights and abuse reports form
Time is now: 12th December 2019 - 14:21:49