Welcome Guest ( Log In | Register )

> Vagrond - Temporal (2013), Black Metal/Shoegaze (D4)
post Jan 19 2014, 07:19:27
Post #1

Правь статус, ####!111
**************
Group: Металариец
Posts: 2,286
Releases: 1008
From: Гиперборе́я
On Forums: 9 years 6 months
Thanks: 21703 time(s)
Russian Federation


(IMG:http://metalarea.org/images/audiocovers/2014_Jan/acov_tid216941_thumb.jpg)

*Artist: Vagrond
*Album: Temporal
*Year: 2013
*Genre: Black Metal/Shoegaze
*Country: Australia (IMG:http://metalarea.org/forum/style_images/flags/Australia.png)
*Format: mp3@CBR320kbps
*Size: 106MB

Tracklist:
01. The Burden Of Self 06:44
02. Time Is Fleeting 09:20
03. The Tide 07:03
04. End Of The Hour 07:31
05. It Reveals Its Branches 05:45
06. Sea Of Sound 09:33
******************************
Total playing time: 45:56

(IMG:http://metalarea.org/images/youtube.png)



Technical info
(IMG:http://metalarea.org/images/spectrogram/2014_Jan/d0c5813746ebe1f6ea4e6e92a44ced77.png)
Input File: 02 - Time Is Fleeting.mp3
Channels : 2
Sample Rate : 44100
Precision : 16-bit
Duration : 00:09:19.13 = 24657545 samples = 41934.6 CDDA sectors
File Size : 22.4M
Bit Rate : 320k
Sample Encoding: MPEG audio (layer I, II or III)
Comments :
Title=Time Is Fleeting
Artist=Vagrond
Album=Temporal
Tracknumber=02/06
Year=2013
Genre=Black Metal/Shoegaze



Register


Go to the top of the page
  Insert nick Quick quote
+Quote Post
 
Start new topic
Replies (1 - 1)
post Jan 19 2014, 17:54:15
Post #2

Девять Литров
*********
Group: Металариец
Posts: 991
Releases: 91
On Forums: 9 years 1 month
Thanks: 2255 time(s)
Unknown


отличный альбом. странно что только сейчас в качестве выложили


Thanks:
Go to the top of the page
  Insert nick Quick quote
+Quote Post

Reply to this topicStart new topic
1 User(s) are reading this topic (1 Guests and 0 Anonymous Users)
0 Members:

 



- Lo-Fi Version Support form
Copyrights and abuse reports form
Time is now: 30th May 2020 - 21:30:53