Welcome Guest ( Log In | Register )

> The Haunted - Eye Of The Storm [ep] (2014), Groove/Thrash Metal (D)
post Feb 5 2014, 18:22:40
Post #1

Правь статус, ####!111
**************
Group: Металариец
Posts: 20,330
Releases: 13857
From: Г.Харьков
On Forums: 7 years 8 months
Thanks: 242947 time(s)
Unknown


(IMG:http://metalarea.org/images/audiocovers/2014_Feb/acov_tid218122_thumb.jpg)

*Artist: The Haunted
*Album: Eye Of The Storm [ep]
*Year: 2014
*Genre: Groove/Thrash Metal
*Country: Sweden (IMG:http://metalarea.org/forum/style_images/flags/Sweden.png)
*Format: mp3@CBR320kbps
*Size: 18MB

Tracklist:
01. Eye of The Storm 03:46
02. Infiltrator 03:31
03. My Enemy 00:59
******************************
Total playing time: 8:16

Preview 1


Extended info


Technical info
(IMG:http://metalarea.org/images/spectrogram/2014_Feb/72cdfe80414e15268bd06f43ee3cb751.png)
Input File: 02 - Infiltrator.mp3
Channels : 2
Sample Rate : 44100
Precision : 16-bit
Duration : 00:03:30.94 = 9302234 samples = 15820.1 CDDA sectors
File Size : 8.44M
Bit Rate : 320k
Sample Encoding: MPEG audio (layer I, II or III)
Comments :
Title=Infiltrator
Artist=The Haunted
Album=Eye of the Storm
Tracknumber=2
Year=2014
Genre=Groove/Thrash Metal



Register


Go to the top of the page
  Insert nick Quick quote
+Quote Post
 
Start new topic
Replies (1 - 6)
post Feb 5 2014, 20:10:56
Post #2
BAN
Banned till
Feb 17 2020, 07:08:03



пускай лучше толстопуз Аро, чем их первый нытик. Чего бы хотелось - скорости!
Go to the top of the page
  Insert nick Quick quote
+Quote Post
post Feb 5 2014, 20:32:43
Post #3

Четыре Литра
****
Group: Металариец
Posts: 358
Releases: 0
On Forums: 7 years 1 month
Thanks: 150 time(s)
Belarus


The Haunted - Made Me Do It вот это были времена!!!Походу время портит многих талантливых музыкантов !!!Вопрос эти м музыкантам . Как можно потерять эту шедевральную жилку !!!Сцуко?
Go to the top of the page
  Insert nick Quick quote
+Quote Post
post Feb 11 2014, 12:05:38
Post #4

Group: Подсевший
Posts: 41
Releases: 0
On Forums: 13 years 1 month
Thanks: 27 time(s)
Russian Federation


всё тут хорошо.


Thanks:
Go to the top of the page
  Insert nick Quick quote
+Quote Post
post Mar 19 2014, 21:38:07
Post #5

PREDATель
**************
Group: Металариец
Posts: 3,470
Releases: 8
From: из Кёнига
On Forums: 12 years 1 month
Thanks: 2269 time(s)
Russian Federation


ЦИТАТА(Samogon @ Feb 5 2014, 21:32:43) *
The Haunted - Made Me Do It вот это были времена!!!Походу время портит многих талантливых музыкантов !!!Вопрос эти м музыкантам . Как можно потерять эту шедевральную жилку !!!Сцуко?

Да. (IMG:style_emoticons/default/6.gif)
Go to the top of the page
  Insert nick Quick quote
+Quote Post
post Mar 24 2014, 13:34:14
Post #6

Крещенный в алкоголе
***********
Group: Металариец
Posts: 1,587
Releases: 30
From: Sea of darkness
On Forums: 14 years 3 months
Thanks: 701 time(s)
Israel


На вокале все еще Петрович ? А то он вроде уходить собирался, хорошо если так и не собрался.
Go to the top of the page
  Insert nick Quick quote
+Quote Post
post Mar 24 2014, 13:47:46
Post #7

Крещенный в алкоголе
***********
Group: Металариец
Posts: 1,587
Releases: 30
From: Sea of darkness
On Forums: 14 years 3 months
Thanks: 701 time(s)
Israel


Ну, собственно, даже и не знаю что ждать от альбома. Первая песня в духе моего нелюбимого Versus, вторая вообще напомнила о Made me do it, только с современным саундом. Последняя это жесткое и короткое рубилово времен Револьвера и One Kill Wonder. В общем, что бы на альбоме ни было, это явно будет непохоже на последний, и это опять таки будет круто!
Go to the top of the page
  Insert nick Quick quote
+Quote Post

Reply to this topicStart new topic
2 User(s) are reading this topic (2 Guests and 0 Anonymous Users)
0 Members:

 



- Lo-Fi Version Support form
Copyrights and abuse reports form
Time is now: 26th January 2020 - 16:29:24