Welcome Guest ( Log In | Register )

> Calvary - Calvary [demo] (2013), Raw Black Metal/Post-Punk (D5)
post Feb 6 2014, 17:40:19
Post #1

добрый доктор
**************
Group: Металариец
Posts: 3,184
Releases: 1083
From: коста-сити
On Forums: 11 years 8 months
Thanks: 19896 time(s)
Russian Federation


(IMG:http://metalarea.org/images/audiocovers/2014_Feb/acov_tid218194_thumb.jpg)

*Artist: Calvary
*Album: Calvary [demo]
*Year: 2013
*Genre: Raw Black Metal/Post-Punk
*Country: United States (IMG:http://metalarea.org/forum/style_images/flags/United%20States.png)
*Format: mp3@CBR320kbps
*Size: 40MB

Tracklist:
1. Untitled
2. Untitled
3. Untitled
4. Untitled
******************************
Total playing time: 17:42

Technical info
(IMG:http://metalarea.org/images/spectrogram/2014_Feb/1f79e7e1e90253d6afc67a70f05d08e0.png)
Input File: 02 Untitled.mp3
Channels : 2
Sample Rate : 44100
Precision : 16-bit
Duration : 00:03:01.70 = 8012882 samples = 13627.4 CDDA sectors
File Size : 7.27M
Bit Rate : 320k
Sample Encoding: MPEG audio (layer I, II or III)
Comments :
Title=Untitled
Artist=Calvary
Album=Calvary
Tracknumber=2
Year=2014



Register


Go to the top of the page
  Insert nick Quick quote
+Quote Post
 
Start new topic
Replies (1 - 9)
Kub
post Feb 6 2014, 18:40:37
Post #2

Guests team






любителям таких вещей как Niding, Looks of love, ну и СоО как всегда в таких случаях.
сыро, лирично, отстранённая экспериментальщина.
понравилось.


Go to the top of the page
  Insert nick Quick quote
+Quote Post
post Sep 2 2016, 14:41:27
Post #3

Маньяк
**********
Group: Металариец
Posts: 1,091
Releases: 14
On Forums: 12 years 3 weeks
Thanks: 935 time(s)
Russian Federation


Жалко, что проект, по всей видимости, одноразовый.


Thanks:
Go to the top of the page
  Insert nick Quick quote
+Quote Post
post Aug 22 2018, 13:56:44
Post #4

Пять Литров
*****
Group: Металариец
Posts: 404
Releases: 0
On Forums: 12 years 2 weeks
Thanks: 46 time(s)
United States


Re-upload please?


Thanks:
Go to the top of the page
  Insert nick Quick quote
+Quote Post
post May 19 2019, 19:28:06
Post #5

Мегаманьяк
***********
Group: Металариец
Posts: 1,851
Releases: 1
From: ecuador
On Forums: 12 years 3 months
Thanks: 1311 time(s)
Ecuador


please re upload it, thanks in advance
Go to the top of the page
  Insert nick Quick quote
+Quote Post
post Oct 29 2019, 01:28:03
Post #6

Group: Подсевший
Posts: 33
Releases: 0
On Forums: 2 years 4 months
Thanks: 5 time(s)
France


Re-up anyone please ?? Would be great !
Go to the top of the page
  Insert nick Quick quote
+Quote Post
post Oct 30 2019, 05:03:44
Post #7

Group: Подсевший
Posts: 28
Releases: 11
On Forums: 5 years 1 month
Thanks: 202 time(s)
Russian Federation


@320
Register
.


Go to the top of the page
  Insert nick Quick quote
+Quote Post
post Sep 20 2020, 20:44:07
Post #8

Group: Подсевший
Posts: 15
Releases: 0
From: Moscow
On Forums: 11 years 3 months
Thanks: 1 time(s)
Russian Federation


Добрый день, подскажите пожалуйста, нет ли у Вас демо 2019 года этой группы?
Его вообще невозможно найти, даже на том же bandcamp....
Go to the top of the page
  Insert nick Quick quote
+Quote Post
post Sep 21 2020, 11:31:58
Post #9

Group Icon
Group: S-moderation team
Posts: 17,220
Releases: 1441
From: Zagreb
On Forums: 9 years 7 months
Thanks: 78320 time(s)
Croatia


QUOTE(AnnFairy @ Sep 20 2020, 21:44:07) *
Добрый день, подскажите пожалуйста, нет ли у Вас демо 2019 года этой группы?
Его вообще невозможно найти, даже на том же bandcamp....
Register



Go to the top of the page
  Insert nick Quick quote
+Quote Post
post Sep 23 2020, 19:13:15
Post #10

Group: Подсевший
Posts: 15
Releases: 0
From: Moscow
On Forums: 11 years 3 months
Thanks: 1 time(s)
Russian Federation


ЦИТАТА(Borderline1991 @ Sep 21 2020, 15:31:58) *



Cпасибо Вам!!! (IMG:style_emoticons/default/10.gif)
Go to the top of the page
  Insert nick Quick quote
+Quote Post

Reply to this topicStart new topic
1 User(s) are reading this topic (1 Guests and 0 Anonymous Users)
0 Members:

 



- Lo-Fi Version Support form
Copyrights and abuse reports form
Time is now: 22nd October 2020 - 05:07:59