Welcome Guest ( Log In | Register )

> Separatist - Closure (2014), Technical Death Metal
post Feb 7 2014, 18:04:26
Post #1

Семь Литров
*******
Group: Металариец
Posts: 729
Releases: 47
On Forums: 7 years 8 months
Thanks: 821 time(s)
Ukraine


(IMG:http://metalarea.org/images/audiocovers/2014_Feb/acov_tid218254_thumb.jpg)

*Artist: Separatist
*Album: Closure
*Year: 2014
*Genre: Technical Death Metal
*Country: Australia (IMG:http://metalarea.org/forum/style_images/flags/Australia.png)
*Format: mp3@CBR320kbps
*Size: 117MB

Tracklist:
1. Monuments
2. Isolation
3. Ω
4. Deluge Arterial
5. Carrier
6. Immersion
7. Void
8. Altars
9. Closure
******************************
Total playing time: 44:05

(IMG:http://metalarea.org/images/myspace.png)

Technical info
(IMG:http://metalarea.org/images/spectrogram/2014_Feb/3be5bfae1c6adf8b5bb92055c8a5c8c2.png)
Input File: Separatist - Closure - 01 Monuments.mp3
Channels : 2
Sample Rate : 44100
Precision : 16-bit
Duration : 00:07:48.58 = 20664334 samples = 35143.4 CDDA sectors
File Size : 18.8M
Bit Rate : 321k
Sample Encoding: MPEG audio (layer I, II or III)
Comments :
Title=Monuments
Artist=Separatist
Album=Closure
Tracknumber=1
Year=2014
Genre=Technical Death Metal



Register


Go to the top of the page
  Insert nick Quick quote
+Quote Post
 
Start new topic
Replies (1 - 9)
post Feb 7 2014, 19:31:26
Post #2

Семь Литров
*******
Group: Металариец
Posts: 729
Releases: 47
On Forums: 7 years 8 months
Thanks: 821 time(s)
Ukraine




Thanks:
(1) hammer,
Go to the top of the page
  Insert nick Quick quote
+Quote Post
post Feb 7 2014, 19:49:41
Post #3

И Ван Дамм По Делам Вашим!
**************
Group: Металариец
Posts: 16,251
Releases: 27
On Forums: 10 years 4 months
Thanks: 8640 time(s)
Honduras


не понравилась превьюха.
Go to the top of the page
  Insert nick Quick quote
+Quote Post
post Feb 8 2014, 12:29:21
Post #4

Пять Литров
*****
Group: Металариец
Posts: 499
Releases: 1
From: Тверская
On Forums: 11 years 6 months
Thanks: 249 time(s)
Russian Federation


Не вкатило (((
Go to the top of the page
  Insert nick Quick quote
+Quote Post
post Jul 12 2018, 08:50:02
Post #5

hearer & reader
**************
Group: Металариец
Posts: 7,117
Releases: 91
From: Moscow
On Forums: 11 years 2 months
Thanks: 6770 time(s)
Russian Federation


халява
Go to the top of the page
  Insert nick Quick quote
+Quote Post
post Sep 12 2018, 13:32:44
Post #6

Schuldinerist
**************
Group: Металариец
Posts: 9,898
Releases: 33
From:
On Forums: 11 years 7 months
Thanks: 6066 time(s)
Russian Federation


Вокалист Sam Dishington практически в одиночку реанимировал проект Separatist в 2014 году, выпустив этот релиз, продолжающий линию культового дебютника 2008 года.
Вполне себе приятно и кайфово, примерно на 8/10. Ближайшие ассоциации - Immolation, Ulcerate.
В том же 2014 Сэм перезаписал и сам дебютник.
Go to the top of the page
  Insert nick Quick quote
+Quote Post
post Sep 12 2018, 14:07:51
Post #7

Маньяк
**********
Group: Металариец
Posts: 1,189
Releases: 0
From: Луцьк
On Forums: 10 years 6 months
Thanks: 598 time(s)
Ukraine


Думал, группа из ДНР... А тут Австрия.


Thanks:
(1) Thrashman,
Go to the top of the page
  Insert nick Quick quote
+Quote Post
post Sep 12 2018, 14:20:48
Post #8

Schuldinerist
**************
Group: Металариец
Posts: 9,898
Releases: 33
From:
On Forums: 11 years 7 months
Thanks: 6066 time(s)
Russian Federation


Кенгурятник(и) - не Австрия.
Техникал ли дэт на альбоме судить слушателю, однако отмечу, что резиденты МА среди 50 лучших техно-прог-дэт альбомов 2014 года работу Сепаратиста не называли.
Go to the top of the page
  Insert nick Quick quote
+Quote Post
post Sep 12 2018, 14:50:23
Post #9

И Ван Дамм По Делам Вашим!
**************
Group: Металариец
Posts: 16,251
Releases: 27
On Forums: 10 years 4 months
Thanks: 8640 time(s)
Honduras


ЦИТАТА(vo140182fav @ Sep 12 2018, 16:07:51) *
Думал, группа из ДНР... А тут Австрия.

джорж буш младший?! (IMG:style_emoticons/default/1488.gif)
Go to the top of the page
  Insert nick Quick quote
+Quote Post
post Sep 12 2018, 15:52:06
Post #10

Маньяк
**********
Group: Металариец
Posts: 1,189
Releases: 0
From: Луцьк
On Forums: 10 years 6 months
Thanks: 598 time(s)
Ukraine


Чьорт, не дочитал (IMG:style_emoticons/default/15.gif) Действительно - Австралия. Ну, главное, что не из республик...
Go to the top of the page
  Insert nick Quick quote
+Quote Post

Reply to this topicStart new topic
1 User(s) are reading this topic (1 Guests and 0 Anonymous Users)
0 Members:

 



- Lo-Fi Version Support form
Copyrights and abuse reports form
Time is now: 15th November 2018 - 18:40:39