Welcome Guest ( Log In | Register )

> Separatist - Closure (2014), Technical Death Metal
post Feb 7 2014, 18:04:26
Post #1

Семь Литров
*******
Group: Металариец
Posts: 729
Releases: 47
On Forums: 7 years 4 months
Thanks: 819 time(s)
Ukraine


(IMG:http://metalarea.org/images/audiocovers/2014_Feb/acov_tid218254_thumb.jpg)

*Artist: Separatist
*Album: Closure
*Year: 2014
*Genre: Technical Death Metal
*Country: Australia (IMG:http://metalarea.org/forum/style_images/flags/Australia.png)
*Format: mp3@CBR320kbps
*Size: 117MB

Tracklist:
1. Monuments
2. Isolation
3. Ω
4. Deluge Arterial
5. Carrier
6. Immersion
7. Void
8. Altars
9. Closure
******************************
Total playing time: 44:05

(IMG:http://metalarea.org/images/myspace.png)

Technical info
(IMG:http://metalarea.org/images/spectrogram/2014_Feb/3be5bfae1c6adf8b5bb92055c8a5c8c2.png)
Input File: Separatist - Closure - 01 Monuments.mp3
Channels : 2
Sample Rate : 44100
Precision : 16-bit
Duration : 00:07:48.58 = 20664334 samples = 35143.4 CDDA sectors
File Size : 18.8M
Bit Rate : 321k
Sample Encoding: MPEG audio (layer I, II or III)
Comments :
Title=Monuments
Artist=Separatist
Album=Closure
Tracknumber=1
Year=2014
Genre=Technical Death Metal



Register


Go to the top of the page
  Insert nick Quick quote
+Quote Post
 
Start new topic
Replies (1 - 4)
post Feb 7 2014, 19:31:26
Post #2

Семь Литров
*******
Group: Металариец
Posts: 729
Releases: 47
On Forums: 7 years 4 months
Thanks: 819 time(s)
Ukraine




Thanks:
(1) hammer,
Go to the top of the page
  Insert nick Quick quote
+Quote Post
post Feb 7 2014, 19:49:41
Post #3

И Ван Дамм По Делам Вашим!
**************
Group: Металариец
Posts: 15,779
Releases: 27
On Forums: 10 years 2 weeks
Thanks: 8363 time(s)
Honduras


не понравилась превьюха.
Go to the top of the page
  Insert nick Quick quote
+Quote Post
post Feb 8 2014, 12:29:21
Post #4

Пять Литров
*****
Group: Металариец
Posts: 489
Releases: 1
From: Тверская
On Forums: 11 years 2 months
Thanks: 244 time(s)
Russian Federation


Не вкатило (((
Go to the top of the page
  Insert nick Quick quote
+Quote Post
post Jul 12 2018, 08:50:02
Post #5

hearer & reader
**************
Group: Металариец
Posts: 6,506
Releases: 81
From: Moscow
On Forums: 10 years 10 months
Thanks: 6455 time(s)
Russian Federation


халява
Go to the top of the page
  Insert nick Quick quote
+Quote Post

Reply to this topicStart new topic
2 User(s) are reading this topic (2 Guests and 0 Anonymous Users)
0 Members:

 



- Lo-Fi Version Support form
Copyrights and abuse reports form
Time is now: 17th July 2018 - 19:53:07