Welcome Guest ( Log In | Register )

> Ulgoroth - Uthrimm [ep] (2014), Depressive Black Metal
post Feb 11 2014, 05:10:22
Post #1

Девять Литров
*********
Group: Металариец
Posts: 977
Releases: 370
On Forums: 7 years 6 months
Thanks: 8010 time(s)
North Korea


(IMG:http://metalarea.org/images/audiocovers/2014_Feb/acov_tid218418_thumb.jpg)

*Artist: Ulgoroth
*Album: Uthrimm [Demo]
*Year: 2014
*Genre: Depressive Black Metal
*Country: Germany (IMG:http://metalarea.org/forum/style_images/flags/Germany.png)
*Format: mp3@CBR320kbps
*Size: 80MB

Tracklist:
1.Kristallkörper (Intro) 01:58
2.Kalter Wind - Trostlos 05:47
3.Wanderer der Himmelskörper 08:07
4.Irrleuchten einer Nachtvision 02:58
5.Mein inneres Uhrwerk 09:23
6.Abgrund trister Nebelfelder 06:48
******************************
Total playing time: 35:01




Extended info
Released 09 September 2013


Technical info
(IMG:http://metalarea.org/images/spectrogram/2014_Feb/d89be4913310d7cee543362fe55de9a7.png)
Input File: 02 Kalter Wind - Trostlos.mp3
Channels : 2
Sample Rate : 44100
Precision : 16-bit
Duration : 00:05:47.23 = 15312799 samples = 26042.2 CDDA sectors
File Size : 14.0M
Bit Rate : 322k
Sample Encoding: MPEG audio (layer I, II or III)
Comments :
Title=Kalter Wind - Trostlos
Artist=Ulgoroth
Album=Uthrimm
Tracknumber=02
Year=2013
Genre=Depressive Black Metal



Register


Go to the top of the page
  Insert nick Quick quote
+Quote Post
 
Start new topic
Replies (1 - 2)
post Feb 11 2014, 13:47:18
Post #2

ZEHTAN!
*****
Group: Металариец
Posts: 460
Releases: 22
From: Germany
On Forums: 12 years 3 months
Thanks: 771 time(s)
Germany


a little correction, it's not an EP, it's an demo as stated on their bandcamp page:

QUOTE
"The first demo recordings named Uthrimm were published in 2013."


(IMG:style_emoticons/default/smile1.gif)


Thanks:
Go to the top of the page
  Insert nick Quick quote
+Quote Post
post Mar 15 2018, 14:05:22
Post #3

Правь статус, ####!616
**************
Group: Металариец
Posts: 4,392
Releases: 3000
From: 55°35’N 38°08’E
On Forums: 9 years 11 months
Thanks: 55775 time(s)
Unknown


Ulgoroth - Uthrimm mp3@CBR320kbps 80MB

Register


Go to the top of the page
  Insert nick Quick quote
+Quote Post

Reply to this topicStart new topic
1 User(s) are reading this topic (1 Guests and 0 Anonymous Users)
0 Members:

 



- Lo-Fi Version Support form
Copyrights and abuse reports form
Time is now: 18th June 2018 - 10:55:46