Welcome Guest ( Log In | Register )

> Pus Vomit - Stoned To Death [ep] (2014), Brutal Death Metal/Grindcore
post Feb 13 2014, 14:22:56
Post #1

Serial Uploader
Group Icon
Group: V.I.P
Posts: 37,124
Releases: 35308
From: Lithuania
On Forums: 11 years 11 months
Thanks: 419441 time(s)
Lithuania


(IMG:http://metalarea.org/images/audiocovers/2014_Feb/acov_tid218556_thumb.jpg)

*Artist: Pus Vomit
*Album: Stoned To Death [ep]
*Year: 2014
*Genre: Brutal Death Metal/Grindcore
*Country: Philippines (IMG:http://metalarea.org/forum/style_images/flags/Philippines.png)
*Format: mp3@CBR320kbps
*Size: 41MB

Tracklist:
01. Delusions Of The Insurgency 03:24
02. Stoned To Death 03:57
03. Secrecy Through Murder 03:11
04. Doctrines Of Manipulating Slavery 02:28
05. Legacy Of Destruction/ Your Dead Body I Molest 06:55
******************************
Total playing time: 19:55

(IMG:http://metalarea.org/images/myspace.png)

(IMG:http://metalarea.org/images/youtube.png)

Technical info
(IMG:http://metalarea.org/images/spectrogram/2014_Feb/bb141548cbcc3077b742e812ef60e273.png)
Input File: 02. Stoned To Death.mp3
Channels : 2
Sample Rate : 44100
Precision : 16-bit
Duration : 00:03:58.00 = 10495800 samples = 17850 CDDA sectors
File Size : 9.51M
Bit Rate : 320k
Sample Encoding: MPEG audio (layer I, II or III)
Comments :
Title=Stoned To Death
Artist=Pus Vomit
Album=Stoned To Death
Tracknumber=2
Year=2014



Register


Go to the top of the page
  Insert nick Quick quote
+Quote Post
 
Start new topic
Replies (1 - 4)
post Feb 17 2014, 01:02:15
Post #2

Мегаманьяк
***********
Group: Металариец
Posts: 1,562
Releases: 34
From: -за леса,из-за гор
On Forums: 9 years 8 months
Thanks: 2030 time(s)
Russian Federation


Несказанно порадовало "живое" звучание.Очень мощно! (IMG:style_emoticons/default/metaler.gif)
Go to the top of the page
  Insert nick Quick quote
+Quote Post
post May 21 2014, 16:55:44
Post #3

Правь статус, ####!111
**************
Group: Металариец
Posts: 3,886
Releases: 14
From: Москва и МО
On Forums: 13 years 11 months
Thanks: 1126 time(s)
Russian Federation


Здравый такой релиз. Полноформат, помнится, весьма вкатил. Тут также есть, что послушать.
Go to the top of the page
  Insert nick Quick quote
+Quote Post
post May 21 2014, 17:23:35
Post #4

Три Литра
***
Group: Завсегдатай
Posts: 223
Releases: 3
From: Ётунхейм
On Forums: 10 years 1 month
Thanks: 413 time(s)
Antarctica


О, о, наконец-то, я думал, они распались!

В плане техники они подросли значительно. Раньше акцент делался исключительно на слэм, а тут - прямо красота.
Go to the top of the page
  Insert nick Quick quote
+Quote Post
post Jul 24 2019, 03:02:05
Post #5

Социопат.Маргинал. Мизантроп.Нигилист. Перверзный нарциссист.
**************
Group: Металариец
Posts: 5,566
Releases: 667
From: Город-герой Ленинград
On Forums: 9 years 3 months
Thanks: 6400 time(s)
Russian Federation


Register


Thanks:
Go to the top of the page
  Insert nick Quick quote
+Quote Post

Reply to this topicStart new topic
2 User(s) are reading this topic (2 Guests and 0 Anonymous Users)
0 Members:

 



- Lo-Fi Version Support form
Copyrights and abuse reports form
Time is now: 3rd June 2020 - 10:52:46