Welcome Guest ( Log In | Register )

> Paranorm - The Edge Of Existence [ep] (2014), Thrash Metal
post Feb 28 2014, 17:54:57
Post #1

Правь статус, ####!111
**************
Group: Металариец
Posts: 13,952
Releases: 9735
From: Г.Харьков
On Forums: 6 years 3 months
Thanks: 159794 time(s)
Unknown


(IMG:http://metalarea.org/images/audiocovers/2014_Feb/acov_tid219381_thumb.png)

*Artist: Paranorm
*Album: The Edge Of Existence [ep]
*Year: 2014
*Genre: Thrash Metal
*Country: Sweden (IMG:http://metalarea.org/forum/style_images/flags/Sweden.png)
*Format: mp3@CBR320kbps
*Size: 56MB

Tracklist:
01. Into The Unknown 05:38
02. Second Assault 04:10
03. Sunstorm 07:51
04. Desolate Worlds 07:45
******************************
Total playing time: 25:24

Preview 1


Extended info


Technical info
(IMG:http://metalarea.org/images/spectrogram/2014_Feb/fda66220a62cec010d24f947b34292e6.png)
Input File: 02 - Second Assault.mp3
Channels : 2
Sample Rate : 44100
Precision : 16-bit
Duration : 00:04:10.49 = 11046521 samples = 18786.6 CDDA sectors
File Size : 10.0M
Bit Rate : 320k
Sample Encoding: MPEG audio (layer I, II or III)
Comments :
Title=Second Assault
Artist=Paranorm
Album=The Edge of Existence
Tracknumber=2
Year=2014
Genre=Thrash Metal



Register


Go to the top of the page
  Insert nick Quick quote
+Quote Post
 
Start new topic
Replies (1 - 5)
post Feb 28 2014, 23:24:55
Post #2

Шесть Литров
******
Group: Металариец
Posts: 642
Releases: 0
From: Одесса-мама
On Forums: 9 years 7 months
Thanks: 193 time(s)
Ukraine


Спасибо!
Вещь!
Go to the top of the page
  Insert nick Quick quote
+Quote Post
post Mar 1 2014, 03:57:16
Post #3

Два Литра
**
Group: Завсегдатай
Posts: 119
Releases: 0
On Forums: 4 years 5 months
Thanks: 3 time(s)
Mexico


(IMG:style_emoticons/default/metaler.gif) Thanks!
Go to the top of the page
  Insert nick Quick quote
+Quote Post
post Mar 1 2014, 05:39:12
Post #4

Правь статус, ####!111
**************
Group: Металариец
Posts: 5,171
Releases: 0
From: Primorye.ru
On Forums: 7 years 4 months
Thanks: 1002 time(s)
Russian Federation


Знатно у шведов ! ... с элементами проги (IMG:style_emoticons/default/20.gif)
Go to the top of the page
  Insert nick Quick quote
+Quote Post
post Jun 28 2014, 07:15:12
Post #5

_ - = # Thrashogolic # = - _ ... а давайте поржём все вместе
**************
Group: Металариец
Posts: 20,921
Releases: 4444
From: 404
On Forums: 8 years 2 months
Thanks: 27088 time(s)
Ukraine



(IMG:style_emoticons/default/20.gif)
Go to the top of the page
  Insert nick Quick quote
+Quote Post
post Aug 9 2018, 19:13:45
Post #6

Два Литра
**
Group: Завсегдатай
Posts: 125
Releases: 5
On Forums: 6 years 4 months
Thanks: 131 time(s)
Russian Federation


Register


Thanks:
(1) wgs73,
Go to the top of the page
  Insert nick Quick quote
+Quote Post

Reply to this topicStart new topic
2 User(s) are reading this topic (2 Guests and 0 Anonymous Users)
0 Members:

 



- Lo-Fi Version Support form
Copyrights and abuse reports form
Time is now: 21st August 2018 - 12:47:50