Welcome Guest ( Log In | Register )

 
Reply to this topicStart new topic
> Narath - Epilogue [demo] (2014), Black Metal (D)
post Mar 2 2014, 20:39:29
Post #1

Пять Литров
*****
Group: Металариец
Posts: 499
Releases: 145
From: Питер
On Forums: 14 years 1 month
Thanks: 1805 time(s)
Russian Federation


(IMG:http://metalarea.org/images/audiocovers/2014_Mar/acov_tid219474_thumb.jpg)

*Artist: Narath
*Album: Epilogue [demo]
*Year: 2014
*Genre: Black Metal
*Country: Russian Federation (IMG:http://metalarea.org/forum/style_images/flags/Russian%20Federation.png)
*Format: mp3@CBR320kbps
*Size: 127MB

Tracklist:
01. Old Bones' Taverna 2:29
02. My Green Mile 6:37
03. God's Secret Domain 17:30
04. Callisto IV 31:12
******************************
Total playing time: 57:48

Preview 1

Technical info
(IMG:http://metalarea.org/images/spectrogram/2014_Mar/1a1ea63b96ef854e90f1531321cb91d4.png)
Input File: 2.My Green Mile.mp3
Channels : 2
Sample Rate : 44100
Precision : 16-bit
Duration : 00:06:37.72 = 17539276 samples = 29828.7 CDDA sectors
File Size : 15.9M
Bit Rate : 320k
Sample Encoding: MPEG audio (layer I, II or III)
Comments :
Title=My Green Mile
Artist=Narath
Album=Epilogue (Demo)
Tracknumber=2
Year=2014
Genre=Black Metal



Register


Go to the top of the page
  Insert nick Quick quote
+Quote Post

Reply to this topicStart new topic
2 User(s) are reading this topic (2 Guests and 0 Anonymous Users)
0 Members:

 



- Lo-Fi Version Support form
Copyrights and abuse reports form
Time is now: 23rd February 2020 - 23:26:35