Welcome Guest ( Log In | Register )

> Noctem - Exilium (2014), Death/Black Metal
post Mar 3 2014, 11:43:07
Post #1

Правь статус, ####!111
**************
Group: Металариец
Posts: 17,365
Releases: 11782
From: Г.Харьков
On Forums: 7 years 1 month
Thanks: 197103 time(s)
Unknown


(IMG:http://metalarea.org/images/audiocovers/2014_Mar/acov_tid219506_thumb.jpg)

*Artist: Noctem
*Album: Exilium
*Year: 2014
*Genre: Death/Black Metal
*Country: Spain (IMG:http://metalarea.org/forum/style_images/flags/Spain.png)
*Format: mp3@CBR320kbps
*Size: 101MB

Tracklist:
01. Enuma Elish 01:59
02. Apsu Dethroned 05:52
03. Decrepit Human Kingdom 04:04
04. Namtar's Crown 04:08
05. The Rising Hors 05:26
06. Halo Of Repugnance 05:23
07. Egregor 05:11
08. The Splint of Destinations 05:54
09. Eidolon 06:36
10. The Adamantine Doors 03:46
******************************
Total playing time: 48:19



Extended info


Technical info
(IMG:http://metalarea.org/images/spectrogram/2014_Mar/cd75a81b5f12e4c43051dd124e588c3f.png)
Input File: 02 - Apsu Dethroned.mp3
Channels : 2
Sample Rate : 44100
Precision : 16-bit
Duration : 00:05:52.17 = 15530521 samples = 26412.5 CDDA sectors
File Size : 14.1M
Bit Rate : 320k
Sample Encoding: MPEG audio (layer I, II or III)
Comments :
Title=Apsu Dethroned
Artist=Noctem
Album=Exilium
Tracknumber=2
Year=2014
Genre=Black/Death Metal



Register


This post has been edited by DarkHorde: Mar 3 2014, 14:08:31


Go to the top of the page
  Insert nick Quick quote
+Quote Post
 
Start new topic
Replies (1 - 7)
post Mar 3 2014, 13:49:18
Post #2

\m/
Group Icon
Group: S-moderation team
Posts: 7,649
Releases: 19
From: Петропавловск-Камчатский
On Forums: 10 years 3 days
Thanks: 7086 time(s)
Russian Federation


Ух ты, это те Noctem которые выдали потрясающие Divinity и Oblivion! Качаю непременно!


Thanks:
Go to the top of the page
  Insert nick Quick quote
+Quote Post
post Mar 3 2014, 13:55:30
Post #3

::
**************
Group: Металариец
Posts: 2,294
Releases: 3
From: Воронеж
On Forums: 9 years 1 month
Thanks: 1025 time(s)
Russian Federation


Свежая порция мяска прямиком из ада. Налетайте, черти (IMG:style_emoticons/default/25.gif)


Thanks:
Go to the top of the page
  Insert nick Quick quote
+Quote Post
post Mar 3 2014, 18:23:46
Post #4

кручу наждак
**************
Group: Металариец
Posts: 3,899
Releases: 96
From: Самара
On Forums: 9 years 1 month
Thanks: 2893 time(s)
Russian Federation


Рубят мощно, но под конец начинает утомлять.
Go to the top of the page
  Insert nick Quick quote
+Quote Post
post Mar 3 2014, 18:29:13
Post #5

::
**************
Group: Металариец
Posts: 2,294
Releases: 3
From: Воронеж
On Forums: 9 years 1 month
Thanks: 1025 time(s)
Russian Federation


Ну что-то да, запала на 3 альбома не хватило, все самые классные мелодии пошли в прошлые 2. Тут ничего интересного, кроме фирменного звучания, не услышал.
Go to the top of the page
  Insert nick Quick quote
+Quote Post
post Mar 18 2014, 01:19:19
Post #6

Маньяк
**********
Group: Металариец
Posts: 1,296
Releases: 0
From: Луцьк
On Forums: 11 years 1 month
Thanks: 636 time(s)
Ukraine


Немножко послабее альбом, чем предыдущий, но все-равно - очень даже замечательно. Все тот же колючий шведский дезоблек испанского разлива. Антимелодии в лучших традициях - здесь мелодичным соплямм не место! Хочешь услышать звуки ада - послушай этот альбом!
Go to the top of the page
  Insert nick Quick quote
+Quote Post
post Mar 18 2014, 07:14:32
Post #7

::
**************
Group: Металариец
Posts: 2,294
Releases: 3
From: Воронеж
On Forums: 9 years 1 month
Thanks: 1025 time(s)
Russian Federation


А ты первый еще послушай, он, на мой взгляд, самый крутой у них.
Go to the top of the page
  Insert nick Quick quote
+Quote Post
post Apr 15 2019, 15:10:20
Post #8

Правь статус, ####!111
**************
Group: Металариец
Posts: 2,220
Releases: 0
On Forums: 11 months 2 weeks
Thanks: 1702 time(s)
Russian Federation


106 mb/320 kbps
Register
Go to the top of the page
  Insert nick Quick quote
+Quote Post

Reply to this topicStart new topic
1 User(s) are reading this topic (1 Guests and 0 Anonymous Users)
0 Members:

 



- Lo-Fi Version Support form
Copyrights and abuse reports form
Time is now: 16th June 2019 - 06:30:13