Welcome Guest ( Log In | Register )

> Embryectomy - Promo 2014 [demo] (2014), Brutal Death Metal
post Mar 5 2014, 17:55:55
Post #1

Serial Uploader
Group Icon
Group: V.I.P
Posts: 32,736
Releases: 31034
From: Lithuania
On Forums: 10 years 2 weeks
Thanks: 355746 time(s)
Lithuania


(IMG:https://metalarea.org/images/audiocovers/2014_Mar/acov_tid219653_thumb.jpg)

*Artist: Embryectomy
*Album: Promo 2014 [demo]
*Year: 2014
*Genre: Brutal Death Metal
*Country: Greece (IMG:https://metalarea.org/forum/style_images/flags/Greece.png)
*Format: mp3@CBR320kbps
*Size: 34MB

Tracklist:
01. Dilapidated Abomination Of Intrinsic Deformity 03:34
02. Gastrointestinal Tract Colonized By Vermin 03:36
03. Intrauterine Cranial Decompression 03:32
04. Molesting The Ominous Abnormity 03:56
******************************
Total playing time: 14:38




Technical info
(IMG:https://metalarea.org/images/spectrogram/2014_Mar/2b078996e391da7d0505c150f7bed0fa.png)
Input File: Embryectomy - PROMO 2014 - 02 Gastrointestinal Tract Colonized by Vermin.mp3
Channels : 2
Sample Rate : 44100
Precision : 16-bit
Duration : 00:03:36.42 = 9544034 samples = 16231.4 CDDA sectors
File Size : 8.75M
Bit Rate : 323k
Sample Encoding: MPEG audio (layer I, II or III)
Comments :
Title=Gastrointestinal Tract Colonized by Vermin
Artist=Embryectomy
Album=PROMO 2014
Tracknumber=2
Year=2014



Register


Go to the top of the page
  Insert nick Quick quote
+Quote Post
 
Start new topic
Replies (1 - 1)
post Oct 12 2017, 06:50:24
Post #2

...Only Death Is Real...
**************
Group: Металариец
Posts: 2,626
Releases: 15
On Forums: 7 years 11 months
Thanks: 1615 time(s)
Russian Federation


Register
Go to the top of the page
  Insert nick Quick quote
+Quote Post

Reply to this topicStart new topic
1 User(s) are reading this topic (1 Guests and 0 Anonymous Users)
0 Members:

 



- Lo-Fi Version Support form
Copyrights and abuse reports form
Time is now: 23rd June 2018 - 01:50:14