Welcome Guest ( Log In | Register )

> Benevolent - The Covenant (2014), Experimental Death Metal (D4)
post Mar 17 2014, 21:20:37
Post #1

Правь статус, ####!111
**************
Group: Металариец
Posts: 14,292
Releases: 9912
From: Г.Харьков
On Forums: 6 years 4 months
Thanks: 162622 time(s)
Unknown


(IMG:http://metalarea.org/images/audiocovers/2014_Mar/acov_tid220231_thumb.jpg)

*Artist: Benevolent
*Album: The Covenant
*Year: 2014
*Genre: Experimental Death Metal
*Country: Kuwait (IMG:http://metalarea.org/forum/style_images/flags/Kuwait.png)
*Format: mp3@CBR320kbps
*Size: 144MB

Tracklist:
01. Void
02. Asphyxia
03. The Seeker
04. Radiate
05. Illusion
06. Heathen
07. The Collector
08. Dissipate
09. Metamorphosis
10. Ascension
11. Rebirth
******************************
Total playing time: 1:03:09


(IMG:http://metalarea.org/images/youtube.png)

Technical info
(IMG:http://metalarea.org/images/spectrogram/2014_Mar/c2192b2eab1b0ab78f2f922041f94fcd.png)
Input File: 02 - Asphyxia.mp3
Channels : 2
Sample Rate : 44100
Precision : 16-bit
Duration : 00:09:41.38 = 25638990 samples = 43603.7 CDDA sectors
File Size : 23.3M
Bit Rate : 321k
Sample Encoding: MPEG audio (layer I, II or III)
Comments :
Title=Asphyxia
Artist=Benevolent
Album=The Covenant
Tracknumber=2
Year=2014
Genre=metal



Register


Go to the top of the page
  Insert nick Quick quote
+Quote Post
 
Start new topic
Replies (1 - 3)
post Mar 17 2014, 22:23:16
Post #2

Правь статус, ####!111
**************
Group: Металариец
Posts: 2,729
Releases: 727
On Forums: 8 years 1 day
Thanks: 9585 time(s)
Ukraine


Progressive Metal, или Progressive/Math Metal на ваше усмотрение.


Thanks:
Go to the top of the page
  Insert nick Quick quote
+Quote Post
post Mar 19 2014, 18:27:25
Post #3

_ - = # Thrashogolic # = - _ ... а давайте поржём все вместе
**************
Group: Металариец
Posts: 20,960
Releases: 4444
From: 404
On Forums: 8 years 3 months
Thanks: 27136 time(s)
Ukraine




Thanks:
Go to the top of the page
  Insert nick Quick quote
+Quote Post
post Sep 14 2018, 14:13:36
Post #4

Мегаманьяк
***********
Group: Металариец
Posts: 1,593
Releases: 119
From: Omsk, Siberia
On Forums: 9 years 6 months
Thanks: 2555 time(s)
Russian Federation


newer links (320):
Register
Go to the top of the page
  Insert nick Quick quote
+Quote Post

Reply to this topicStart new topic
2 User(s) are reading this topic (2 Guests and 0 Anonymous Users)
0 Members:

 



- Lo-Fi Version Support form
Copyrights and abuse reports form
Time is now: 22nd September 2018 - 03:27:35