Welcome Guest ( Log In | Register )

> Sado Sathanas - Nomos Hamartia (2014), Atmospheric Black Metal
post Mar 18 2014, 12:00:50
Post #1

Пять Литров
*****
Group: Металариец
Posts: 481
Releases: 21
On Forums: 10 years 1 month
Thanks: 851 time(s)
China


(IMG:http://metalarea.org/images/audiocovers/2014_Mar/acov_tid220251_thumb.jpg)

*Artist: Sado Sathanas
*Album: Nomos Hamartia
*Year: 2014
*Genre: Atmospheric Black Metal
*Country: Germany (IMG:http://metalarea.org/forum/style_images/flags/Germany.png)
*Format: mp3@CBR320kbps
*Size: 98MB

Tracklist:
1. Nomos Hamartia 08:11
2. Martyrium 07:11
3. Ante Bellum 06:49
4. Invertum 07:09
5. P.A.N. Demonia 05:39
6. Codex Diaboli 06:05
******************************
Total playing time: 41:04

(IMG:http://metalarea.org/images/youtube.png)


Extended info
Naturmacht Productions NP049

CD-Rip


Technical info
(IMG:http://metalarea.org/images/spectrogram/2014_Mar/cbbec83b055808a5e60eb3a8fa2b4c9c.png)
Input File: 05 - P.A.N. Demon.mp3
Channels : 2
Sample Rate : 44100
Precision : 16-bit
Duration : 00:05:38.89 = 14945005 samples = 25416.7 CDDA sectors
File Size : 13.6M
Bit Rate : 320k
Sample Encoding: MPEG audio (layer I, II or III)
Comments :
Title=P.A.N. Demon
Artist=sado Sathanas
Album=Nomos Hamartia
Tracknumber=5



Register


Go to the top of the page
  Insert nick Quick quote
+Quote Post
 
Start new topic
Replies (1 - 3)
post Mar 19 2014, 14:26:30
Post #2

Crush! Kill! Destroy!
**************
Group: Металариец
Posts: 4,444
Releases: 15
From: Kaliningrad
On Forums: 10 years 7 months
Thanks: 4142 time(s)
Russian Federation


Приятный атмосферный альбомчик, как колыбельная - самое то. Надо переслушать дебютник.
Go to the top of the page
  Insert nick Quick quote
+Quote Post
post Mar 25 2014, 18:14:43
Post #3
BAN
RO till
--



Альбом просто фееричный по своему .. И слушается по настоящему инфернально в атмосфере восприятия . Клавишные необычно берут иногда партии гитар и самое главное - величественные без пафоса гармонии транс-чернии местами аж прибивают ,и гармонии эти самое главное СВОИ и ни на кого не похожие , а минорные тремольные писдетсы не дают распустить сопли и так целый альбом пролетает . Старообрядный , слегка атмо и без слюней клавишный Имортал такой себе соорудили немцы, опять же местами и в основном после завораживающих замедлений и опять это не совсем точно , так как и другие культы на ум приходят ..Но когда в очередной раз в течении альбома накрывают величественные гармонии транс-чернии клавишных , то понимаешь это Sado Sathanas -
- новый культ , по крайней мере для меня - культ прослушиваний хотя бы в этой мере временной будет от чего оттянуться . Композиторское блэковое начало удивило по настоящему. Даже не знаю с чем сравнить ..Вроде не сильно известная группа до этого альбома , но для меня этот альбом реально алмаз.Выстрел.
Go to the top of the page
  Insert nick Quick quote
+Quote Post
post Sep 13 2017, 18:51:04
Post #4

Правь статус, ####!111
**************
Group: Металариец
Posts: 3,227
Releases: 589
From: Brazil
On Forums: 6 years 4 months
Thanks: 23869 time(s)
Brazil


Register

mp3@CBR320kbps


Thanks:
(1) kim666,
Go to the top of the page
  Insert nick Quick quote
+Quote Post

Reply to this topicStart new topic
1 User(s) are reading this topic (1 Guests and 0 Anonymous Users)
0 Members:

 



- Lo-Fi Version Support form
Copyrights and abuse reports form
Time is now: 19th June 2018 - 08:00:44