Welcome Guest ( Log In | Register )

> Bloody Violence - Obliterate [ep] (2014), Technical Death Metal
post Mar 18 2014, 14:38:37
Post #1

Serial Uploader
Group Icon
Group: V.I.P
Posts: 36,461
Releases: 34648
From: Lithuania
On Forums: 11 years 5 months
Thanks: 404727 time(s)
Lithuania


(IMG:https://metalarea.org/images/audiocovers/2014_Mar/acov_tid220267_thumb.jpg)

*Artist: Bloody Violence
*Album: Obliterate [ep]
*Year: 2014
*Genre: Technical Death Metal
*Country: Brazil (IMG:https://metalarea.org/forum/style_images/flags/Brazil.png)
*Format: mp3@CBR320kbps
*Size: 35MB

Tracklist:
01. Bloody Violence 05:57
02. Born To Squirm 03:45
03. Purge 05:10
******************************
Total playing time: 14:52




Technical info
(IMG:https://metalarea.org/images/spectrogram/2014_Mar/f9e061890b1cf67815ef54bf8eab8c5c.png)
Input File: 02 - Born to Squirm.mp3
Channels : 2
Sample Rate : 44100
Precision : 16-bit
Duration : 00:03:45.36 = 9938200 samples = 16901.7 CDDA sectors
File Size : 9.02M
Bit Rate : 320k
Sample Encoding: MPEG audio (layer I, II or III)
Comments :
Title=Born to Squirm
Artist=Bloody Violence
Album=Obliterate (EP)
Tracknumber=02
Year=2014



Register


Go to the top of the page
  Insert nick Quick quote
+Quote Post
 
Start new topic
Replies (1 - 3)
post Mar 18 2014, 16:59:26
Post #2

Don't be negative.
**************
Group: Металариец
Posts: 2,845
Releases: 749
From: Earthmother
On Forums: 9 years 1 month
Thanks: 10005 time(s)
Ukraine


Ух! С первых секунд - ультра-техничные запилы на гитаре, сырой брутальный звук, медленные качающие куски, грязный вокал, приятные соляки. Бежишь на фейсбук дабы понять в чем суть успеха этих ребят и видишь там в Influences такие первоклассные банды как Psyopus, Viraemia, Abnormality, Fields of Elysium, Rings of Saturn, Psycophagist, Guttural Secrete!!! И при всём этом разбросе модерновых и олдскульных банд чувствуется именно что золотая середина, идеально и для тех и для других. Отличный EP от суровых мужиков, жаль что короткий.


Thanks:
Go to the top of the page
  Insert nick Quick quote
+Quote Post
post May 10 2014, 16:13:29
Post #3

___
**************
Group: Металариец
Posts: 2,073
Releases: 12
On Forums: 11 years 3 months
Thanks: 2818 time(s)
Russian Federation


Слушаю дебютный ЕР бразильцев Bloody Violence, спозиционированных, как Technical Death Metal, и удивляюсь: как можно называть "техно-дэтом" музыку, почти не имеющую ни единого дэтового проявления!? По-моему, именно такой стаф, какой играют бразильцы, и называют маткором. И если довольно резвая и мелодичная "математика" смотрится ещё куда ни шло, то многое портит вокал - брутальный гроулинг с оттенком дэткоровости. Иными словами, музыка не очень-то стыкуется с "пением". Практически всё здесь завязано на своеобразной манере игре гитариста Игоря Дорнелиса из брутал-дэтовой банды The Jokke - в принципе, подобная манера известна, но нечасто используется столь интенсивно: высоконастроенная гитара перманентно звучит а-ля соло, но при этом соло как таковое отсутствует начисто. (IMG:style_emoticons/default/smile1.gif) В целом, всё исполняется интенсивно, активно, на неплохой скорости. Ближе к концу последнего трека Purge появляются-таки техникал-очертания, но своё мнение по поводу маткоровой основы музыки Bloody Violence я менять не буду - недостаточно будет этого техникала, да и "поле кончилось", как говорят в футболе. (IMG:style_emoticons/default/smile1.gif) 7.5/10


Thanks:
(1) samokot,
Go to the top of the page
  Insert nick Quick quote
+Quote Post
post Mar 16 2018, 22:14:02
Post #4

Шесть Литров
******
Group: Металариец
Posts: 582
Releases: 0
From: curitiba, parana
On Forums: 7 years 1 month
Thanks: 589 time(s)
Brazil


Register


Thanks:
(1) artscald,
Go to the top of the page
  Insert nick Quick quote
+Quote Post

Reply to this topicStart new topic
2 User(s) are reading this topic (2 Guests and 0 Anonymous Users)
0 Members:

 



- Lo-Fi Version Support form
Copyrights and abuse reports form
Time is now: 17th November 2019 - 09:15:26