Welcome Guest ( Log In | Register )

> In Flagrante Delicto - Ultio (2013), Depressive Black Metal
post Mar 19 2014, 06:50:34
Post #1

Правь статус, ####!111
**************
Group: Металариец
Posts: 2,276
Releases: 1014
From: Гиперборе́я
On Forums: 7 years 9 months
Thanks: 21334 time(s)
Russian Federation


(IMG:http://metalarea.org/images/audiocovers/2014_Mar/acov_tid220310_thumb.jpg)

*Artist: In Flagrante Delicto
*Album: Ultio
*Year: 2013
*Genre: Depressive Black Metal
*Country: Greece (IMG:http://metalarea.org/forum/style_images/flags/Greece.png)
*Format: mp3@CBR320kbps
*Size: 82MB

Tracklist:
01. Intro 02:48
02. Inanimus 04:49
03. Ultio 04:04
04. Apatris 06:06
05. Cursum Perficio 06:26
06. Dolus 02:24
07. Antigrecia 05:18
08. Outro 03:40
******************************
Total playing time: 35:35



Technical info
(IMG:http://metalarea.org/images/spectrogram/2014_Mar/0f0d31f4a2879ed068341aa0c7a9983a.png)
Input File: 04 - Apatris.mp3
Channels : 2
Sample Rate : 44100
Precision : 16-bit
Duration : 00:06:07.08 = 16188404 samples = 27531.3 CDDA sectors
File Size : 14.7M
Bit Rate : 320k
Sample Encoding: MPEG audio (layer I, II or III)
Comments :
Title=Apatris
Artist=In Flagrante Delicto
Album=Ultio
Tracknumber=04/08
Year=2013
Genre=Depressive Black Metal



Register


Go to the top of the page
  Insert nick Quick quote
+Quote Post
 
Start new topic
Replies (1 - 9)
post Mar 19 2014, 17:05:43
Post #2

Шесть Шесть Шесть Литров
******
Group: Металариец
Posts: 566
Releases: 0
On Forums: 8 years 4 months
Thanks: 487 time(s)
NATO


ЦИТАТА
Inspired by antifa/antisexist themes.

Gay Black Metal/Ambient? (IMG:style_emoticons/default/hmm.gif)


Thanks:
(1) libertine,
Go to the top of the page
  Insert nick Quick quote
+Quote Post
post Mar 19 2014, 17:29:36
Post #3

antithesis
**************
Group: Металариец
Posts: 2,250
Releases: 28
From: VRN
On Forums: 8 years 2 months
Thanks: 1177 time(s)
Russian Federation


ЦИТАТА(Госпромнадзор @ Mar 19 2014, 20:05:43) *
Gay Black Metal/Ambient? (IMG:style_emoticons/default/hmm.gif)


(IMG:style_emoticons/default/bye.gif) пойду проблююсь,пожалуй
Go to the top of the page
  Insert nick Quick quote
+Quote Post
post Mar 19 2014, 17:44:37
Post #4

I hate you all
***********
Group: Металариец
Posts: 1,797
Releases: 74
From: Ukraine
On Forums: 11 years 3 months
Thanks: 4581 time(s)
Ukraine


ЦИТАТА(Госпромнадзор @ Mar 19 2014, 18:05:43) *
Gay Black Metal/Ambient? (IMG:style_emoticons/default/hmm.gif)


Ё..аный стыд !!
Go to the top of the page
  Insert nick Quick quote
+Quote Post
post Mar 19 2014, 18:41:37
Post #5

Девять Литров
*********
Group: Металариец
Posts: 989
Releases: 91
On Forums: 7 years 4 months
Thanks: 2212 time(s)
Unknown


ахахахах хд)
Go to the top of the page
  Insert nick Quick quote
+Quote Post
post Mar 19 2014, 21:00:47
Post #6

Два Литра
**
Group: Завсегдатай
Posts: 152
Releases: 3
From: Ленинград
On Forums: 9 years 7 months
Thanks: 55 time(s)
Russian Federation


Inspired by antifa/antisexist themes.

это сейчас нереально модно) ещё веган забыли.
как скримо | пост-метал называть блеком. какой-то [мат->бан]ец головного мозга))
Go to the top of the page
  Insert nick Quick quote
+Quote Post
post Apr 19 2014, 08:22:14
Post #7

Шесть Литров
******
Group: Металариец
Posts: 578
Releases: 0
On Forums: 6 years 11 months
Thanks: 43 time(s)
Unknown


ЦИТАТА(Госпромнадзор @ Mar 19 2014, 17:05:43) *
Gay Black Metal/Ambient? (IMG:style_emoticons/default/hmm.gif)

Это что, действительно их фотография, или шутка такая?
Сначала Гаал, потом я неоднократно слышал обвинения в адрес Кварфорта в гомосятине... Вообще поговаривают что Skitliv этим делом грешат. Теперь ещё и эти?!...
Пожалуй надо скачать (IMG:style_emoticons/default/1488.gif)
Go to the top of the page
  Insert nick Quick quote
+Quote Post
post Feb 24 2018, 05:49:13
Post #8

赑屃
***
Group: Завсегдатай
Posts: 205
Releases: 5
From: Луганск
On Forums: 1 year 4 months
Thanks: 100 time(s)
Russian Federation


Это просто нечто.. Смесь суммонинговской атмосферы, депрессивных фишек и чего-то такого непередаваемо фунерал-думского.. Короче - это просто тот самый жемчуг в горе мусора, который случайно оказался прямо на виду..
Go to the top of the page
  Insert nick Quick quote
+Quote Post
post May 17 2018, 00:16:28
Post #9

Литр
*
Group: Подсевший
Posts: 71
Releases: 0
From: Санкт-Петербург
On Forums: 9 years 6 months
Thanks: 16 time(s)
Russian Federation


Залейте плиз
Go to the top of the page
  Insert nick Quick quote
+Quote Post
post May 17 2018, 06:25:45
Post #10

Ледоруб
**************
Group: Металариец
Posts: 20,305
Releases: 0
From: Санкт-Петербург
On Forums: 8 years 11 months
Thanks: 6602 time(s)
Russian Federation


Хорошая песня АН.
Go to the top of the page
  Insert nick Quick quote
+Quote Post

Reply to this topicStart new topic
1 User(s) are reading this topic (1 Guests and 0 Anonymous Users)
0 Members:

 



- Lo-Fi Version Support form
Copyrights and abuse reports form
Time is now: 21st August 2018 - 07:08:48