Welcome Guest ( Log In | Register )

> Krigere Wolf - Sacrifice To Valaskjàlf (2014), Black/Death Metal
post Mar 21 2014, 06:52:12
Post #1

Маньяк
**********
Group: Металариец
Posts: 1,016
Releases: 374
On Forums: 8 years 7 months
Thanks: 8455 time(s)
Eritrea


(IMG:http://metalarea.org/images/audiocovers/2014_Mar/acov_tid220407_thumb.jpg)

*Artist: Krigere Wolf
*Album: Sacrifice To Valaskjàlf
*Year: 2014
*Genre: Black/Death Metal
*Country: Italy (IMG:http://metalarea.org/forum/style_images/flags/Italy.png)
*Format: mp3@CBR320kbps
*Size: 89MB

Tracklist:
1. Whispers of the End 02:48
2. Towards the Black Mass 05:18
3. Disciples of Sacred Fire 05:24
4. Sacrifice to Valaskjàlf 03:13
5. Blood to the Wolves 05:51
6. Impaled Slaves 05:47
7. The End Has a Beginning 03:34
8. Vision of Death 04:31
9. At Open Gates 02:04
******************************
Total playing time: 38:30



Extended info
Limited 800Copies and Super-JewelCase 50Copies


Technical info
(IMG:http://metalarea.org/images/spectrogram/2014_Mar/852232ed15c3bf3c5025ef1a903e10da.png)
Input File: 04-Sacrifice To Valaskjalf.mp3
Channels : 2
Sample Rate : 44100
Precision : 16-bit
Duration : 00:03:13.22 = 8521090 samples = 14491.6 CDDA sectors
File Size : 7.73M
Bit Rate : 320k
Sample Encoding: MPEG audio (layer I, II or III)
Comments :
Title=Sacrifice To Valaskjlf
Artist=Krigere Wolf
Album=Sacrifice To Valaskjlf
Tracknumber=04
Year=2014
Genre=Black Metal



Register


Go to the top of the page
  Insert nick Quick quote
+Quote Post
 
Start new topic
Replies (1 - 1)
post Jun 12 2019, 03:34:50
Post #2

aggresive exumator!
*********
Group: Металариец
Posts: 922
Releases: 0
On Forums: 7 years 9 months
Thanks: 32 time(s)
Unknown


reupload please
Go to the top of the page
  Insert nick Quick quote
+Quote Post

Reply to this topicStart new topic
2 User(s) are reading this topic (2 Guests and 0 Anonymous Users)
0 Members:

 



- Lo-Fi Version Support form
Copyrights and abuse reports form
Time is now: 27th June 2019 - 07:45:23