Welcome Guest ( Log In | Register )

> 

Здесь релизы с живыми прямыми ссылками на lossless

> Frozen Sun - Unspoken (1996), Power/Progressive Metal
post Mar 21 2014, 11:00:21
Post #1

Подвал
**************
Group: Металариец
Posts: 13,652
Releases: 7740
From: Far East (Khabarovsk)
On Forums: 10 years 8 months
Thanks: 75005 time(s)
Russian Federation


(IMG:http://metalarea.org/images/audiocovers/2014_Mar/acov_tid220414_thumb.jpg)

*Artist: Frozen Sun
*Album: Unspoken
*Year: 1996
*Genre: Power/Progressive Metal
*Country: Netherlands (IMG:http://metalarea.org/forum/style_images/flags/Netherlands.png)
*Format: mp3@CBR320kbps
*Size: 106MB

Tracklist:
1. Face Down 03:56
2. Heritage (Break The Chain) 04:49
3. This Identity 03:59
4. Leash 03:46
5. Womb 05:59
6. Dry Mouth 04:01
7. Gimmick 03:41
8. Cosmic Truth 03:27
9. Choke 03:54
10. Unspoken 07:30
******************************
Total playing time: 45:02

Technical info
(IMG:http://metalarea.org/images/spectrogram/2014_Mar/d09845823f1709db2b12c6e6376ec615.png)
Input File: 01-Face Down.mp3
Channels : 2
Sample Rate : 44100
Precision : 16-bit
Duration : 00:03:56.85 = 10445129 samples = 17763.8 CDDA sectors
File Size : 9.51M
Bit Rate : 321k
Sample Encoding: MPEG audio (layer I, II or III)
Comments :
Title=Face Down
Artist=Frozen Sun
Album=Unspoken
Tracknumber=1
Year=1996
Genre=Metal



Register


Go to the top of the page
  Insert nick Quick quote
+Quote Post
 
Start new topic
Replies (1 - 2)
post Aug 18 2019, 18:50:45
Post #2

Четыре Литра
****
Group: Металариец
Posts: 359
Releases: 0
On Forums: 1 year 2 months
Thanks: 11 time(s)
Serbia


PLS REUPLOAD
Go to the top of the page
  Insert nick Quick quote
+Quote Post
post Aug 23 2019, 12:20:52
Post #3


Group Icon
Group: S-moderation team
Posts: 12,073
Releases: 1439
From: Zagreb
On Forums: 8 years 7 months
Thanks: 52719 time(s)
Croatia


Register


Thanks:
(1) Olethros,
Go to the top of the page
  Insert nick Quick quote
+Quote Post

Reply to this topicStart new topic
1 User(s) are reading this topic (1 Guests and 0 Anonymous Users)
0 Members:

 



- Lo-Fi Version Support form
Copyrights and abuse reports form
Time is now: 19th October 2019 - 21:15:53