Welcome Guest ( Log In | Register )

> Tulsadoom - Barbarian Steel (2012), Blackened Heavy/Thrash Metal
post Mar 21 2014, 18:19:44
Post #1

Правь статус, ####!111
**************
Group: Металариец
Posts: 13,362
Releases: 9421
From: Г.Харьков
On Forums: 6 years 1 month
Thanks: 153702 time(s)
Unknown


(IMG:http://metalarea.org/images/audiocovers/2014_Mar/acov_tid220452_thumb.jpg)

*Artist: Tulsadoom
*Album: Barbarian Steel
*Year: 2012
*Genre: Blackened Heavy/Thrash Metal
*Country: Austria (IMG:http://metalarea.org/forum/style_images/flags/Austria.png)
*Format: mp3@CBR320kbps
*Size: 108MB

Tracklist:
01. The Glory of Thulsa Doom 04:09
02. Attack the God of the Four Winds 05:52
03. Fuck the God of the Four Winds 03:46
04. Doomrider Madness 04:33
05. Barbarian Beer Attack 04:14
06. The Hammer of Thorgrim 07:13
07. Barbarian Bitchfuck 04:13
08. Virgin Penetrator 03:20
09. Tulsaride 04:46
10. The Gateway 01:57
11. Enter the Snakecult 04:52
******************************
Total playing time: 48:55


(IMG:http://metalarea.org/images/youtube.png)

Extended info


Technical info
(IMG:http://metalarea.org/images/spectrogram/2014_Mar/92a58cf00bd432d79750e5ec36171f85.png)
Input File: 03. Fuck the God of the Four Winds.mp3
Channels : 2
Sample Rate : 44100
Precision : 16-bit
Duration : 00:03:46.85 = 10003865 samples = 17013.4 CDDA sectors
File Size : 9.08M
Bit Rate : 320k
Sample Encoding: MPEG audio (layer I, II or III)
Comments :
Title=Fuck the God of the Four Winds
Artist=Tulsadoom
Album=Barbarian Steel
Tracknumber=3
Year=2012
Genre=Thrash Metal



Register


Go to the top of the page
  Insert nick Quick quote
+Quote Post
 
Start new topic
Replies (1 - 3)
post May 7 2015, 19:33:06
Post #2

_ - = # Thrashogolic # = - _ ... а давайте поржём все вместе
**************
Group: Металариец
Posts: 20,848
Releases: 4444
From: 404
On Forums: 8 years 4 days
Thanks: 27004 time(s)
Ukraine


Go to the top of the page
  Insert nick Quick quote
+Quote Post
post Sep 24 2017, 11:43:17
Post #3

\m/
Group Icon
Group: S-moderation team
Posts: 7,407
Releases: 19
From: Петропавловск-Камчатский
On Forums: 9 years 1 week
Thanks: 6640 time(s)
Russian Federation


Перезалейте/Reupload
Go to the top of the page
  Insert nick Quick quote
+Quote Post
post Nov 15 2017, 02:10:32
Post #4

Мегаманьяк
***********
Group: Металариец
Posts: 1,965
Releases: 0
On Forums: 3 years 1 month
Thanks: 1721 time(s)
Russian Federation


Из сети, 320
Register


Thanks:
(1) DarkHorde,
Go to the top of the page
  Insert nick Quick quote
+Quote Post

Reply to this topicStart new topic
1 User(s) are reading this topic (1 Guests and 0 Anonymous Users)
0 Members:

 



- Lo-Fi Version Support form
Copyrights and abuse reports form
Time is now: 20th June 2018 - 19:53:35