Welcome Guest ( Log In | Register )

> TheHappyMask & Vitaliy Sytnik & Fall To November Sky - Remembering The Light [split] (2014), Post-Black Metal/Shoegaze
post Mar 23 2014, 06:27:06
Post #1

Девять Литров
*********
Group: Металариец
Posts: 999
Releases: 371
On Forums: 7 years 11 months
Thanks: 8267 time(s)
North Korea


(IMG:http://metalarea.org/images/audiocovers/2014_Mar/acov_tid220537_thumb.jpg)

*Artist: Thehappymask & Vitaliy Sytnik & Fall To November Sky
*Album: Remembering The Light [split]
*Year: 2014
*Genre: Post-Black Metal/Shoegaze | Depressive Black Metal/Shoegaze | Post-Black Metal/Shoegaze
*Country: Russian Federation (IMG:http://metalarea.org/forum/style_images/flags/Russian%20Federation.png) | Ukraine (IMG:http://metalarea.org/forum/style_images/flags/Ukraine.png) | Russian Federation (IMG:http://metalarea.org/forum/style_images/flags/Russian%20Federation.png)
*Format: mp3@CBR320kbps
*Size: 141MB

Tracklist:
TheHappyMask:
01. Watching the Sunrise 02:59
02. Childhood amnesia 07:32
03. A Far Distant Place 05:44
04. Abyss of solitude (Dantalion cover) 04:21
Vitaliy Sytnik:
05. Part of Reality I - Membrane 07:47
06. Part of Reality II - Your own Phobia 07:40
07. Part of Reality III - тиша долонь 06:44
08. Part of Reality IV - Last 04:59
Fall to November Sky...:
09. The End of Summer (Pt. I) 03:362.
10. The End of Summer (Pt. II) 07:18
11. From Apathy to Dreamy Transparency 07:02
12. Requiem for a Better Life 04:49
13. Watching the Sundown 03:57
******************************
Total playing time: 1:14:28





Extended info
Instrumental


Technical info
(IMG:http://metalarea.org/images/spectrogram/2014_Mar/50a62f1582d2f53227927e0618e7153a.png)
Input File: 04.thehappymask - Remembering the Light (Split) - Abyss of solitude (Dantalion cover).mp3
Channels : 2
Sample Rate : 44100
Precision : 16-bit
Duration : 00:04:21.51 = 11532635 samples = 19613.3 CDDA sectors
File Size : 8.68M
Bit Rate : 265k
Sample Encoding: MPEG audio (layer I, II or III)
Comments :
Title=Abyss of solitude (Dantalion cover)
Artist=thehappymask
Album=Remembering the Light (Split)
Tracknumber=04
Year=2014
Genre=Post Black Metal, Post Rock



Register


Go to the top of the page
  Insert nick Quick quote
+Quote Post
 
Start new topic
Replies (1 - 4)
post Mar 24 2014, 15:58:01
Post #2

Девять Литров
*********
Group: Металариец
Posts: 990
Releases: 91
On Forums: 7 years 7 months
Thanks: 2234 time(s)
Unknown


просто замечательный сплит. все проекты очень годные


Thanks:
(1) kefka,
Go to the top of the page
  Insert nick Quick quote
+Quote Post
post Jun 2 2015, 07:01:28
Post #3

Правь статус, ####!111
**************
Group: Металариец
Posts: 2,726
Releases: 18
From: Eternal darkness
On Forums: 11 years 1 month
Thanks: 6574 time(s)
Russian Federation


Register


Thanks:
Go to the top of the page
  Insert nick Quick quote
+Quote Post
post Mar 3 2017, 21:16:11
Post #4

Правь статус, ####!111
**************
Group: Металариец
Posts: 6,615
Releases: 0
From: Москва
On Forums: 9 years 3 months
Thanks: 11703 time(s)
Russian Federation


Register
320


Thanks:
(1) kim666,
Go to the top of the page
  Insert nick Quick quote
+Quote Post
post Nov 9 2018, 08:23:13
Post #5

Ich bin die Trauer menschlich, kommen Sie zu mir und ich werde Ihnen vergelten
**************
Group: Металариец
Posts: 3,769
Releases: 692
From: Koenigsberg
On Forums: 10 years 10 months
Thanks: 9762 time(s)
Russian Federation


Register

Go to the top of the page
  Insert nick Quick quote
+Quote Post

Reply to this topicStart new topic
1 User(s) are reading this topic (1 Guests and 0 Anonymous Users)
0 Members:

 



- Lo-Fi Version Support form
Copyrights and abuse reports form
Time is now: 17th November 2018 - 09:53:57