Welcome Guest ( Log In | Register )

> Blood Farmers - Headless Eyes (2014), Doom Metal (D4)
post Mar 27 2014, 02:22:56
Post #1

Мегаманьяк
***********
Group: Металариец
Posts: 1,981
Releases: 1612
From: Saratov
On Forums: 10 years 9 months
Thanks: 57209 time(s)
Russian Federation


(IMG:http://metalarea.org/images/audiocovers/2014_Mar/acov_tid220743_thumb.jpg)

*Artist: Blood Farmers
*Album: Headless Eyes
*Year: 2014
*Genre: Doom Metal
*Country: United States (IMG:http://metalarea.org/forum/style_images/flags/United%20States.png)
*Format: mp3@CBR320kbps
*Size: 97MB

Tracklist:
1. Gut Shot 06:17
2. Headless Eyes 10:49
3. The Creeper 04:51
4. Thousand-Yard Stare 06:34
5. Night of the Sorcerers 10:15
6. The Road Leads to Nowhere (David Hess cover) 05:59
******************************
Total playing time: 44:45

(IMG:http://metalarea.org/images/youtube.png)

Technical info
(IMG:http://metalarea.org/images/spectrogram/2014_Mar/20f1c9e9167e50af28c0b9b7676d098e.png)
Input File: 01 - Gut Shot.mp3
Channels : 2
Sample Rate : 44100
Precision : 16-bit
Duration : 00:06:17.60 = 16652160 samples = 28320 CDDA sectors
File Size : 15.1M
Bit Rate : 320k
Sample Encoding: MPEG audio (layer I, II or III)
Comments :
Title=Gut Shot
Artist=Blood Farmers
Album=Headless Eyes
Tracknumber=01/06
Year=2014
Genre=Doom Metal
Discnumber=1/1



Register


Go to the top of the page
  Insert nick Quick quote
+Quote Post
 
Start new topic
Replies (1 - 7)
post Mar 27 2014, 17:41:21
Post #2

добрый доктор
**************
Group: Металариец
Posts: 3,184
Releases: 1083
From: коста-сити
On Forums: 9 years 4 months
Thanks: 19597 time(s)
Russian Federation


это круто (IMG:style_emoticons/default/pray.gif) ... деды молодцы


Thanks:
Go to the top of the page
  Insert nick Quick quote
+Quote Post
post Mar 28 2014, 18:08:32
Post #3

hearer & reader
**************
Group: Металариец
Posts: 6,388
Releases: 81
From: Moscow
On Forums: 10 years 9 months
Thanks: 6414 time(s)
Russian Federation


#2 - 256 Kbps, и спектр там в пределах 16 КГц...
Go to the top of the page
  Insert nick Quick quote
+Quote Post
post Jan 20 2015, 20:59:39
Post #4

Правь статус, ####!111
**************
Group: Металариец
Posts: 32,061
Releases: 486
On Forums: 9 years 2 weeks
Thanks: 24576 time(s)
Russian Federation


9 лет прошло - ровным счётом ничего не изменилось. А оно вам надо? Мне - категорически-катастрофически нет. Облога стала ещё причудливо-кошмарнее, всё лучшее в вокале и музыке осталось на прежних местах. А большего и не надо. Милости прошу, кому интересен настоящий сермяжный дум. С кровавых полей психованных фермеров.


Thanks:
(1) Leshiy666,
Go to the top of the page
  Insert nick Quick quote
+Quote Post
post Jan 20 2015, 22:07:39
Post #5

ME[ta]LLOMAN
**************
Group: Металариец
Posts: 4,835
Releases: 3
From: Hughes'sRegion\Avdeyevka
On Forums: 12 years 2 months
Thanks: 1731 time(s)
Honduras




такого добра, да по-больше бып


Go to the top of the page
  Insert nick Quick quote
+Quote Post
post Feb 22 2018, 22:14:07
Post #6

Group: Подсевший
Posts: 17
Releases: 0
On Forums: 3 months 3 weeks
Thanks: 0 time(s)
Unknown


Can someone please reupload this?
Go to the top of the page
  Insert nick Quick quote
+Quote Post
post Feb 22 2018, 22:16:38
Post #7

Правь статус, ####!111
**************
Group: Металариец
Posts: 32,061
Releases: 486
On Forums: 9 years 2 weeks
Thanks: 24576 time(s)
Russian Federation


@320

Register


Go to the top of the page
  Insert nick Quick quote
+Quote Post
post Jun 13 2018, 20:21:20
Post #8

Правь статус, ####!111
**************
Group: Металариец
Posts: 2,054
Releases: 0
From: Odessa
On Forums: 10 years 3 months
Thanks: 760 time(s)
Ukraine


nice one (IMG:style_emoticons/default/9.gif)
Go to the top of the page
  Insert nick Quick quote
+Quote Post

Reply to this topicStart new topic
1 User(s) are reading this topic (1 Guests and 0 Anonymous Users)
0 Members:

 



- Lo-Fi Version Support form
Copyrights and abuse reports form
Time is now: 20th June 2018 - 00:22:52