Welcome Guest ( Log In | Register )

> Front Beast - Demon Ways Of Sorcery (2013), Black Metal
post Mar 29 2014, 21:39:45
Post #1

...
**************
Group: Металариец
Posts: 3,432
Releases: 1446
From: МЕЩЁРА
On Forums: 12 years 2 months
Thanks: 41671 time(s)
Russian Federation


(IMG:http://metalarea.org/images/audiocovers/2014_Mar/acov_tid220920_thumb.jpg)

*Artist: Front Beast
*Album: Demon Ways Of Sorcery
*Year: 2013
*Genre: Black Metal
*Country: Germany (IMG:http://metalarea.org/forum/style_images/flags/Germany.png)
*Format: mp3@CBR320kbps
*Size: 120MB

Tracklist:
1. Bearer Of Satan's Flame 06:08
2. Heathen Night 07:11
3. Broken Seal Of White Light 05:15
4. Demon Ways Of Sorcery 04:55
5. Blackness Into Eternity 07:34
6. Filling Skulls With Angels Blood 03:30
7. Hidden Black Wisdom 05:06
8. Inverted Bloody Cross 04:12
******************************
Total playing time: 43:51



(IMG:http://metalarea.org/images/myspace.png)

Extended info
+ Scans.

Available as traditional black vinyl and special edition swamp green vinyl with black splatter. Both releases come with a lyrics insert.
Special mailorder from Hells Headbangers Records is bundled with t-shirt for both versions.
Compact disc pressing available on regular jewelcase.

Avenger - Guitars, Bass, Drums, Vocals. (Black Priest of Satan, Exorcism, Hekate, Nocturnal, Phantom, Shrine, Szarlem, Terrorazor, ex-Bestial Desecration, ex-Necroslaughter, Varghkoghargasmal, ex-Angel of Damnation, ex-Stormhunter, ex-H418ov21.C, ex-Poltergeist)


Technical info
(IMG:http://metalarea.org/images/spectrogram/2014_Mar/9b12e559467d7b3c999e52185252453e.png)
Input File: 1. Bearer of Satan\'s Flame.mp3
Channels : 2
Sample Rate : 44100
Precision : 16-bit
Duration : 00:06:08.86 = 16266726 samples = 27664.5 CDDA sectors
File Size : 14.8M
Bit Rate : 320k
Sample Encoding: MPEG audio (layer I, II or III)
Comments :
Title=Bearer Of Satans Flame
Artist=Front Beast
Album=Demon Ways Of Sorcery
Tracknumber=1
Year=2013
Genre=Black Metal



Register


This post has been edited by RUDACHUR: Sep 20 2017, 13:40:21


Go to the top of the page
  Insert nick Quick quote
+Quote Post
 
Start new topic
Replies (1 - 4)
post Mar 30 2014, 06:00:16
Post #2

Пять Литров
*****
Group: Металариец
Posts: 408
Releases: 1
On Forums: 7 years 11 months
Thanks: 181 time(s)
South Korea


Есть пара интересных треков. В общем, недурно.
Go to the top of the page
  Insert nick Quick quote
+Quote Post
post Apr 9 2014, 17:28:51
Post #3

Правь статус, ####!111
**************
Group: Металариец
Posts: 46,485
Releases: 718
On Forums: 11 years 2 days
Thanks: 39015 time(s)
Russian Federation


Скажу более - альбом замечательный - блэк как он есть. Драйв, энергетика, своеобразие и интересные мелодии присутствуют. Затягивает. Насин спешл, но порекомендую любителям стиля, причём, альбом, по моему мнению, придётся максимально широкой бм аудитории - как любителям Дсо, так и прухи типа Хатс Барн.
Go to the top of the page
  Insert nick Quick quote
+Quote Post
post Sep 20 2017, 05:58:55
Post #4

I love Sushi
******
Group: Металариец
Posts: 659
Releases: 0
From: Vienna
On Forums: 10 years 10 months
Thanks: 139 time(s)
Austria


reupload plz? :D
Go to the top of the page
  Insert nick Quick quote
+Quote Post
post Sep 21 2017, 01:47:45
Post #5

Going home. Flying high.
**************
Group: Металариец
Posts: 13,001
Releases: 0
From: The Land of Shadows
On Forums: 13 years 9 months
Thanks: 24047 time(s)
Russian Federation


yadi.sk link is still alive!


Thanks:
(1) Narasimha,
Go to the top of the page
  Insert nick Quick quote
+Quote Post

Reply to this topicStart new topic
1 User(s) are reading this topic (1 Guests and 0 Anonymous Users)
0 Members:

 



- Lo-Fi Version Support form
Copyrights and abuse reports form
Time is now: 4th June 2020 - 08:50:27