Welcome Guest ( Log In | Register )

> SlavEATgod - The Skyline Fission (2014), Melodic Deathcore/Metalcore (D5)
post Apr 2 2014, 03:25:48
Post #1

Правь статус, ####!111
**************
Group: Металариец
Posts: 19,899
Releases: 13511
From: Г.Харьков
On Forums: 7 years 7 months
Thanks: 233681 time(s)
Unknown


(IMG:http://metalarea.org/images/audiocovers/2014_Apr/acov_tid221057_thumb.jpg)

*Artist: SlavEATgod
*Album: The Skyline Fission
*Year: 2014
*Genre: Melodic Deathcore/Metalcore
*Country: Greece (IMG:http://metalarea.org/forum/style_images/flags/Greece.png)
*Format: mp3@CBR320kbps
*Size: 70MB

Tracklist:
1. Rumors About Steps Secure 01:50 instrumental
2. The Weakened's Rest 04:28
3. Wreck Age 04:59
4. Corridors Swirl 03:54
5. Downcast Parade 04:49
6. Guiding Blight 03:53
7. Ceased the Days 05:51
8. Last Solace Attempt 02:56
******************************
Total playing time: 32:40

(IMG:http://metalarea.org/images/youtube.png)


Technical info
(IMG:http://metalarea.org/images/spectrogram/2014_Apr/dea94972152c06ba7d7f472f8f1e5707.png)
Input File: 03. Wreck Age.mp3
Channels : 2
Sample Rate : 44100
Precision : 16-bit
Duration : 00:04:54.95 = 13007427 samples = 22121.5 CDDA sectors
File Size : 11.8M
Bit Rate : 320k
Sample Encoding: MPEG audio (layer I, II or III)
Comments :
Title=Wreck Age
Artist=SlavEATgod
Album=The Skyline Fission
Tracknumber=3
Year=2014
Genre=Melodic Deathcore/Metalcore



Register


Thanks:
Go to the top of the page
  Insert nick Quick quote
+Quote Post
 
Start new topic
Replies (1 - 2)
post Dec 2 2019, 21:30:32
Post #2

Group: Дух
Posts: 6
Releases: 0
On Forums: 9 years 4 months
Thanks: 0 time(s)
Unknown


ReUpload anyone please in 320?
Go to the top of the page
  Insert nick Quick quote
+Quote Post
post Dec 6 2019, 13:18:16
Post #3


Group Icon
Group: S-moderation team
Posts: 12,910
Releases: 1439
From: Zagreb
On Forums: 8 years 9 months
Thanks: 56156 time(s)
Croatia


Register


Thanks:
Go to the top of the page
  Insert nick Quick quote
+Quote Post

Reply to this topicStart new topic
2 User(s) are reading this topic (2 Guests and 0 Anonymous Users)
0 Members:

 



- Lo-Fi Version Support form
Copyrights and abuse reports form
Time is now: 16th December 2019 - 11:15:39