Welcome Guest ( Log In | Register )

> Svierg - Demo MMIX [demo] (2009), Black Metal
post Apr 6 2014, 06:02:34
Post #1

Правь статус, ####!111
**************
Group: Металариец
Posts: 2,291
Releases: 1011
From: Гиперборе́я
On Forums: 10 years 5 months
Thanks: 21889 time(s)
Russian Federation


(IMG:http://metalarea.org/images/audiocovers/2014_Apr/acov_tid221291_thumb.jpg)

*Artist: Svierg
*Album: Demo MMIX [demo]
*Year: 2009
*Genre: Black Metal
*Country: United States (IMG:http://metalarea.org/forum/style_images/flags/United%20States.png)
*Format: mp3@CBR320kbps
*Size: 35MB

Tracklist:
01. Earth Lacerated By Saturn's Rings 04:39
02. Into The Astral Abyss 05:45
03. Swallowed By Celestial Darkness 03:45
04. Light Obscured By Earth's Debris 03:35
******************************
Total playing time: 17:44

Technical info
(IMG:http://metalarea.org/images/spectrogram/2014_Apr/abf460ccb7712b6ca7c604418bcb9de6.png)
Input File: 02 - Into The Astral Abyss.mp3
Channels : 2
Sample Rate : 44100
Precision : 16-bit
Duration : 00:05:46.61 = 15285369 samples = 25995.5 CDDA sectors
File Size : 13.9M
Bit Rate : 321k
Sample Encoding: MPEG audio (layer I, II or III)
Comments :
Title=Into The Astral Abyss
Artist=Svierg
Album=Demo MMIX (Demo)
Tracknumber=02/04
Year=2009
Genre=Black Metal



Register


Go to the top of the page
  Insert nick Quick quote
+Quote Post
 
Start new topic
Replies (1 - 3)
post Apr 6 2014, 11:34:15
Post #2

Маньяк
**********
Group: Металариец
Posts: 1,115
Releases: 0
On Forums: 9 years 11 months
Thanks: 531 time(s)
Unknown


Pretty good demo material!



Thanks:
Go to the top of the page
  Insert nick Quick quote
+Quote Post
post Jan 9 2021, 00:25:48
Post #3

Четыре Литра
****
Group: Металариец
Posts: 305
Releases: 0
From: Hellisipolis
On Forums: 12 years 2 months
Thanks: 34 time(s)
Antarctica


Links are gone but found some free stuff on bandcamp



Go to the top of the page
  Insert nick Quick quote
+Quote Post
post Jan 10 2021, 11:36:43
Post #4

Group Icon
Group: S-moderation team
Posts: 20,266
Releases: 1441
From: Zagreb
On Forums: 10 years 1 month
Thanks: 92894 time(s)
Croatia


Register


Go to the top of the page
  Insert nick Quick quote
+Quote Post

Reply to this topicStart new topic
2 User(s) are reading this topic (2 Guests and 0 Anonymous Users)
0 Members:

 



- Lo-Fi Version Support form
Copyrights and abuse reports form
Time is now: 14th April 2021 - 14:24:02