Welcome Guest ( Log In | Register )

> Invertia - Another Scheme Of The Wicked (2014), Industrial Black Metal
post Apr 7 2014, 20:03:15
Post #1

Правь статус, ####!111
**************
Group: Металариец
Posts: 2,285
Releases: 1009
From: Гиперборе́я
On Forums: 9 years 4 weeks
Thanks: 21630 time(s)
Russian Federation


(IMG:http://metalarea.org/images/audiocovers/2014_Apr/acov_tid221390_thumb.jpg)

*Artist: Invertia
*Album: Another Scheme Of The Wicked
*Year: 2014
*Genre: Industrial Black Metal
*Country: United States (IMG:http://metalarea.org/forum/style_images/flags/United%20States.png)
*Format: mp3@CBR320kbps
*Size: 108MB

Tracklist:
01. The Sidewinding 05:13
02. Cross Eyed Christ 03:08
03. Void Of Community 03:59
04. Hourglass Without Sand 04:14
05. They're Everywhere 03:06
06. The Sidewinding (Justin K. Broadrick Remix) 07:07
07. Cross Eyed Christ (End.User Remix) 04:55
08. Void Of Community (TranZi3nT Remix) 05:09
09. Hourglass Without Sand (Submerged Remix) 05:07
10. They're Everywhere (R3TRD Remix) 04:49
******************************
Total playing time: 46:47




Technical info
(IMG:http://metalarea.org/images/spectrogram/2014_Apr/44019cdee2368a0c9395fc3f5ad82424.png)
Input File: 03 - Void Of Community.mp3
Channels : 2
Sample Rate : 44100
Precision : 16-bit
Duration : 00:03:58.42 = 10514234 samples = 17881.4 CDDA sectors
File Size : 9.58M
Bit Rate : 321k
Sample Encoding: MPEG audio (layer I, II or III)
Comments :
Title=Void Of Community
Artist=Invertia
Album=Another Scheme Of The Wicked
Tracknumber=03/10
Year=2014
Genre=Industrial Black Metal



Register


Go to the top of the page
  Insert nick Quick quote
+Quote Post
 
Start new topic
Replies (1 - 1)
post Apr 24 2014, 21:56:37
Post #2

Это просто место… где все подошло к концу.
**************
Group: Металариец
Posts: 5,660
Releases: 0
From: Страны Мамонтов
On Forums: 12 years 9 months
Thanks: 2040 time(s)
Antarctica


Иду захлебнуться кислотой
Go to the top of the page
  Insert nick Quick quote
+Quote Post

Reply to this topicStart new topic
1 User(s) are reading this topic (1 Guests and 0 Anonymous Users)
0 Members:

 



- Lo-Fi Version Support form
Copyrights and abuse reports form
Time is now: 13th December 2019 - 12:02:12