Welcome Guest ( Log In | Register )

> Maniac Butcher - Immortal Death/The Incapable Carrion (2003), Black Metal
post Apr 10 2014, 15:23:08
Post #1

the faceless one
Group Icon
Group: S-moderation team
Posts: 9,203
Releases: 1880
On Forums: 11 years 1 week
Thanks: 110326 time(s)
Russian Federation


(IMG:http://metalarea.org/images/audiocovers/2014_Apr/acov_tid221519_thumb.jpg)

*Artist: Maniac Butcher
*Album: Immortal Death/The Incapable Carrion
*Year: 2003
*Genre: Black Metal
*Country: Czech Republic (IMG:http://metalarea.org/forum/style_images/flags/Czech%20Republic.png)
*Format: mp3@CBR320kbps
*Size: 167MB

Tracklist:
1. Twenty Centuries 05:53
2. Immortal Death 04:32
3. Fight Of Faith With The Church 04:57
4. Church Murders I 04:46
5. Church Murders II 04:00
6. The Ten Commandments 05:27
7. Belief In God 01:55
8. The Eleventh Key 04:30
9. Jesus Christ 06:45
10. The Bond To God 02:02
11. Expansion Of The Church 07:30
12. Awakening In Death 06:25
13. Holy War 04:59
14. Creation 06:06
15. Twenty Centuries (Unreleased Bonus Track) 03:54
******************************
Total playing time: 1:13:41

Extended info
CD-Rip

Переиздание боливийского Inti Raymi и новозеландского Fog Records (июнь, 2012). Рип с диска из коллекции.

В превью эта банда не нуждается. Кому надо - милости прошу, на ютуб!
Бонус-трек добавил отдельными ссылками!

Отдельная благодарность за предоставленный материал моему камраду Zoretaan [BFM, Rutracker]


Technical info
(IMG:http://metalarea.org/images/spectrogram/2014_Apr/c2231ae895e2d320d161d2971679fe9a.png)
Input File: 02. Immortal Death.mp3
Channels : 2
Sample Rate : 44100
Precision : 16-bit
Duration : 00:04:32.43 = 12014295 samples = 20432.5 CDDA sectors
File Size : 10.9M
Bit Rate : 320k
Sample Encoding: MPEG audio (layer I, II or III)
Comments :
Title=Immortal Death
Artist=Maniac Butcher
Album=Immortal Death / The Incapable Carrion
Tracknumber=02
Year=2012
Genre=Black Metal



Register


Go to the top of the page
  Insert nick Quick quote
+Quote Post
 
Start new topic
Replies (1 - 2)
SIG
post Apr 10 2014, 19:27:11
Post #2

Guests team






Переиздание переиздания 2003 года двух первых работ команды. Печалит только, что ничего нового здесь нет. Демки довольно немаленькие и занимают почти все дисковое пространство, и потому чего-то еще здесь и быть не может. Материал довольно монотонен, но небезынтересен.


Thanks:
Go to the top of the page
  Insert nick Quick quote
+Quote Post
post Apr 11 2014, 04:45:17
Post #3

the faceless one
Group Icon
Group: S-moderation team
Posts: 9,203
Releases: 1880
On Forums: 11 years 1 week
Thanks: 110326 time(s)
Russian Federation


ЦИТАТА(SIG @ Apr 10 2014, 22:27:11) *
Переиздание переиздания 2003 года двух первых работ команды.

Это переиздание 2012 г. - в дополнительной информации изложил всё подробным образом. Но ты прав - ничего нового здесь нет, за исключением 15 трека, который обозначен как "Unreleased".
Go to the top of the page
  Insert nick Quick quote
+Quote Post

Reply to this topicStart new topic
1 User(s) are reading this topic (1 Guests and 0 Anonymous Users)
0 Members:

 



- Lo-Fi Version Support form
Copyrights and abuse reports form
Time is now: 19th August 2019 - 04:26:57