Welcome Guest ( Log In | Register )

> Lord Mantis - Death Mask (2014), Blackened Sludge Metal
post Apr 17 2014, 03:09:05
Post #1

Два Литра
**
Group: Завсегдатай
Posts: 140
Releases: 32
On Forums: 12 years 4 months
Thanks: 1305 time(s)
Portugal


(IMG:http://metalarea.org/images/audiocovers/2014_Apr/acov_tid221870_thumb.jpg)

*Artist: Lord Mantis
*Album: Death Mask
*Year: 2014
*Genre: Blackened Sludge Metal
*Country: United States (IMG:http://metalarea.org/forum/style_images/flags/United%20States.png)
*Format: mp3@CBR320kbps
*Size: 119MB

Tracklist:
1. Body Choke 08:46
2. Death Mask 06:38
3. Possession Prayer 06:59
4. You Will Gag For The Fix 02:53
5. Negative Birth 07:31
6. Coil 04:16
7. Three Crosses 10:07
******************************
Total playing time: 47:10




Technical info
(IMG:http://metalarea.org/images/spectrogram/2014_Apr/3cd023d7db1744077430955e4844f5b0.png)
Input File: 01 body choke.mp3
Channels : 2
Sample Rate : 44100
Precision : 16-bit
Duration : 00:08:46.39 = 23213931 samples = 39479.5 CDDA sectors
File Size : 23.5M
Bit Rate : 356k
Sample Encoding: MPEG audio (layer I, II or III)
Comments :
Title=Body Choke
Artist=LORD MANTIS
Album=Death Mask
Tracknumber=1/7
Year=2014



Register


Go to the top of the page
  Insert nick Quick quote
+Quote Post
 
Start new topic
Replies (1 - 5)
post Apr 17 2014, 05:48:43
Post #2

Don't be negative.
**************
Group: Металариец
Posts: 2,852
Releases: 750
From: Earthmother
On Forums: 9 years 6 months
Thanks: 10059 time(s)
Ukraine


Крутая штука
Go to the top of the page
  Insert nick Quick quote
+Quote Post
post Apr 17 2014, 06:43:46
Post #3

Два Литра
**
Group: Завсегдатай
Posts: 110
Releases: 0
From: СПБ/кемерово
On Forums: 12 years 3 months
Thanks: 39 time(s)
Russian Federation


Крайне ожидаемая пластинка !!! Спасибо!!
Go to the top of the page
  Insert nick Quick quote
+Quote Post
post Apr 17 2014, 10:47:21
Post #4

Три Литра
***
Group: Завсегдатай
Posts: 275
Releases: 1
From: Moscow
On Forums: 7 years 10 months
Thanks: 69 time(s)
Russian Federation


Очень цепляет. Вязкая орущая энергия без перерыва. Самое то.
Ловлю себя на ассоциациях с Джудас Приест)), как бы он это отбацал...
Go to the top of the page
  Insert nick Quick quote
+Quote Post
post Jan 13 2015, 21:16:39
Post #5

Статус-хиатус
**************
Group: Металариец
Posts: 2,640
Releases: 7
From: гости
On Forums: 12 years 6 months
Thanks: 1083 time(s)
Ukraine


3й трек - это какой-то утяжелённый Diagnose: Lebensgefahr (IMG:style_emoticons/default/headcrab.png) Такие же вокальные ходы, маршал-ритмы и нойзовый психодел, только всё это заправлено сладжем. Прям вау. На него и клип есть http://vimeo.com/115567954


Thanks:
(1) brth,
Go to the top of the page
  Insert nick Quick quote
+Quote Post
post Dec 20 2019, 14:27:57
Post #6

Четыре Литра
****
Group: Металариец
Posts: 336
Releases: 125
From: Helvetia
On Forums: 7 years 2 months
Thanks: 2319 time(s)
Switzerland


Register


Thanks:
Go to the top of the page
  Insert nick Quick quote
+Quote Post

Reply to this topicStart new topic
2 User(s) are reading this topic (2 Guests and 0 Anonymous Users)
0 Members:

 



- Lo-Fi Version Support form
Copyrights and abuse reports form
Time is now: 8th April 2020 - 03:21:44